<?xml version="1.0" standalone="no"?>
<!DOCTYPE svg PUBLIC "-//W3C//DTD SVG 1.1//EN" "http://www.w3.org/Graphics/SVG/1.1/DTD/svg11.dtd" >
<svg>
<metadata>
Created by FontForge 20090622 at Tue Jul 31 13:46:34 2018
 By deploy user
Copyright (c) JT Types Ltd., 1996-2004. All rights reserved.
</metadata>
<defs>
<font id="Bliss2-Light" horiz-adv-x="523" >
  <font-face 
    font-family="Bliss 2 Light"
    font-weight="300"
    font-stretch="normal"
    units-per-em="1000"
    panose-1="2 0 5 6 3 0 0 2 0 4"
    ascent="800"
    descent="-200"
    x-height="473"
    cap-height="659"
    bbox="-179 -237 1121 953"
    underline-thickness="50"
    underline-position="-100"
    unicode-range="U+0020-U+FB02"
  />
<missing-glyph horiz-adv-x="550" 
d="M50 0v659h450v-659h-450zM101 48h348v563h-348v-563zM231 222q-29 29 -29 60q0 25 20.5 48.5t44.5 38.5t44.5 37.5t20.5 47.5q0 21 -15.5 34t-39.5 13q-41 0 -85 -39l-27 35q49 51 117 51q48 0 77 -25.5t29 -65.5q0 -31 -20.5 -59t-45.5 -45t-45.5 -35.5t-20.5 -32.5
q0 -16 17 -35zM255 107q-16 0 -27 11t-11 28t11 28.5t27 11.5t26.5 -11.5t10.5 -28.5t-10.5 -28t-26.5 -11z" />
    <glyph glyph-name="fi" unicode="fi" horiz-adv-x="526" 
d="M99 0v413h-63v60h63v83q0 80 39.5 116t96.5 36q40 0 73 -15l-16 -60q-28 11 -51 11q-69 0 -69 -85v-86h120l-22 -60h-98v-413h-73zM378 0v473h73v-473h-73zM414 580q-22 0 -35.5 14t-13.5 35t14 35.5t35 14.5q22 0 36 -14t14 -36q0 -21 -14 -35t-36 -14z" />
    <glyph glyph-name="fl" unicode="fl" horiz-adv-x="543" 
d="M99 0v413h-63v60h63v83q0 80 39.5 116t96.5 36q40 0 73 -15l-16 -60q-28 11 -51 11q-69 0 -69 -85v-86h120l-22 -60h-98v-413h-73zM371 86v622h73v-599q0 -28 8.5 -39t28.5 -11q13 0 29 7l16 -58q-30 -14 -66 -14q-44 0 -66.5 24t-22.5 68z" />
    <glyph glyph-name=".notdef" horiz-adv-x="550" 
d="M50 0v659h450v-659h-450zM101 48h348v563h-348v-563zM231 222q-29 29 -29 60q0 25 20.5 48.5t44.5 38.5t44.5 37.5t20.5 47.5q0 21 -15.5 34t-39.5 13q-41 0 -85 -39l-27 35q49 51 117 51q48 0 77 -25.5t29 -65.5q0 -31 -20.5 -59t-45.5 -45t-45.5 -35.5t-20.5 -32.5
q0 -16 17 -35zM255 107q-16 0 -27 11t-11 28t11 28.5t27 11.5t26.5 -11.5t10.5 -28.5t-10.5 -28t-26.5 -11z" />
    <glyph glyph-name=".null" horiz-adv-x="0" 
 />
    <glyph glyph-name="nonmarkingreturn" horiz-adv-x="333" 
 />
    <glyph glyph-name="space" unicode=" " horiz-adv-x="226" 
 />
    <glyph glyph-name="space" unicode="&#xa0;" horiz-adv-x="226" 
 />
    <glyph glyph-name="exclam" unicode="!" horiz-adv-x="267" 
d="M114 175q-12 87 -14.5 159t-2.5 274v51h73v-52q0 -195 -3 -269t-15 -163h-38zM133 -8q-19 0 -33 15t-14 35t14 34.5t33 14.5q20 0 34 -14.5t14 -34.5t-14 -35t-34 -15z" />
    <glyph glyph-name="quotedbl" unicode="&#x22;" horiz-adv-x="340" 
d="M73 489l-11 219h73l-9 -219h-53zM218 489l-11 219h73l-9 -219h-53z" />
    <glyph glyph-name="numbersign" unicode="#" horiz-adv-x="668" 
d="M128 0l37 179h-124v62h138l37 176h-124v62h137l37 179h70l-37 -179h131l37 179h71l-38 -179h125v-62h-138l-37 -176h124v-62h-137l-37 -179h-70l37 179h-131l-37 -179h-71zM249 241h131l37 176h-131z" />
    <glyph glyph-name="dollar" unicode="$" 
d="M220 -80v98q-80 5 -145 46l30 56q61 -41 133 -41q48 0 84.5 22.5t36.5 70.5q0 40 -28 71t-67.5 53l-79 46t-67.5 62.5t-28 88.5q0 57 39 101t107 52v94h60v-93q64 -5 113 -28v-65q-64 33 -134 33q-49 0 -79.5 -23t-30.5 -67q0 -37 28 -66.5t68 -51.5t79.5 -46t67.5 -63.5
t28 -91.5q0 -63 -41 -105t-114 -54v-99h-60z" />
    <glyph glyph-name="percent" unicode="%" horiz-adv-x="827" 
d="M206 318q-64 0 -106 45t-42 128t42 128t106 45q65 0 106.5 -45t41.5 -128t-41.5 -128t-106.5 -45zM206 369q40 0 63 33.5t23 88.5t-23 88.5t-63 33.5t-62.5 -33.5t-22.5 -88.5t22.5 -88.5t62.5 -33.5zM621 -10q-64 0 -106 45.5t-42 127.5q0 83 42 128.5t106 45.5
t106 -45.5t42 -128.5q0 -82 -42 -127.5t-106 -45.5zM621 42q40 0 62.5 33t22.5 88q0 56 -22.5 89t-62.5 33q-41 0 -63.5 -33t-22.5 -89q0 -55 22.5 -88t63.5 -33zM175 0l411 659h66l-412 -659h-65z" />
    <glyph glyph-name="ampersand" unicode="&#x26;" horiz-adv-x="715" 
d="M480 77q-105 -87 -226 -87q-91 0 -143.5 53t-52.5 130q0 131 146 194q-32 37 -46 56t-25 46t-11 57q0 58 46.5 98t120.5 40q77 0 122.5 -38.5t45.5 -101.5q0 -56 -36.5 -97.5t-107.5 -77.5q80 -96 171 -182q67 70 98 157l64 -16q-41 -109 -114 -185q37 -35 64 -51t58 -16
q10 0 22 4l17 -59q-20 -7 -50 -7q-70 0 -163 83zM263 53q83 0 167 67q-101 97 -187 200q-59 -27 -83.5 -61t-24.5 -79q0 -56 35 -91.5t93 -35.5zM272 397q109 51 109 126q0 31 -22 57t-69 26q-45 0 -68.5 -23.5t-23.5 -55.5q0 -28 18 -57.5t56 -72.5z" />
    <glyph glyph-name="quotesingle" unicode="'" horiz-adv-x="195" 
d="M73 489l-12 219h74l-10 -219h-52z" />
    <glyph glyph-name="parenleft" unicode="(" horiz-adv-x="313" 
d="M237 -236q-159 188 -159 504q0 315 159 505l50 -36q-72 -101 -102.5 -204t-30.5 -265t30.5 -264.5t102.5 -203.5z" />
    <glyph glyph-name="parenright" unicode=")" horiz-adv-x="313" 
d="M26 -200q72 101 103 204t31 264t-31 264t-103 205l50 36q159 -190 159 -505t-158 -504z" />
    <glyph glyph-name="asterisk" unicode="*" horiz-adv-x="474" 
d="M207 337q-1 29 6 86.5t8 73.5l-38 -28.5l-49.5 -36.5t-43.5 -27l-30 51q26 16 79.5 39t66.5 29l-62.5 27t-82.5 41l28 51q27 -15 75 -51t58 -42q-1 14 -5 47t-6.5 61.5t-2.5 52.5h59q1 -29 -6 -87.5t-8 -73.5q1 1 53 39t80 54l29 -52q-26 -15 -82 -38.5t-66 -28.5
q6 -3 63 -27.5t84 -40.5l-29 -52q-27 15 -74 50.5t-59 43.5q0 -2 8 -65.5t7 -95.5h-60z" />
    <glyph glyph-name="plus" unicode="+" 
d="M227 0v222h-202v63h202v216h69v-216h202v-63h-202v-222h-69z" />
    <glyph glyph-name="comma" unicode="," horiz-adv-x="216" 
d="M37 -117q46 75 46 150q0 35 -7 67l74 14q6 -33 6 -64q0 -105 -82 -188z" />
    <glyph glyph-name="hyphen" unicode="-" horiz-adv-x="356" 
d="M54 215v65h249v-65h-249z" />
    <glyph glyph-name="hyphen" unicode="&#x2010;" horiz-adv-x="356" 
d="M54 215v65h249v-65h-249z" />
    <glyph glyph-name="hyphen" unicode="&#xad;" horiz-adv-x="356" 
d="M54 215v65h249v-65h-249z" />
    <glyph glyph-name="period" unicode="." horiz-adv-x="216" 
d="M107 -8q-19 0 -33 15t-14 35t14 34.5t33 14.5q20 0 34 -14.5t14 -34.5t-14 -35t-34 -15z" />
    <glyph glyph-name="slash" unicode="/" horiz-adv-x="352" 
d="M17 -33l249 729h71l-249 -729h-71z" />
    <glyph glyph-name="zero" unicode="0" horiz-adv-x="552" 
d="M276 -10q-101 0 -162 88.5t-61 248.5t61 248.5t162 88.5t162 -88.5t61 -248.5t-61 -248.5t-162 -88.5zM276 54q68 0 107 72.5t39 200.5t-39 200.5t-107 72.5t-107 -72.5t-39 -200.5t39 -200.5t107 -72.5z" />
    <glyph glyph-name="one" unicode="1" horiz-adv-x="410" 
d="M218 0v584l-155 -76l-26 59l193 97h61v-664h-73z" />
    <glyph glyph-name="two" unicode="2" horiz-adv-x="504" 
d="M40 0q6 71 27 128.5t50 94.5t62.5 67.5t66 53t59 44.5t43 49.5t16.5 60.5q0 52 -33 77t-85 25q-80 0 -160 -44l-23 58q84 50 189 50q93 0 141.5 -45t48.5 -117q0 -41 -15 -74.5t-40 -58t-55.5 -47l-62.5 -47.5t-60 -53t-49.5 -69t-28.5 -91h310v-62h-401z" />
    <glyph glyph-name="three" unicode="3" horiz-adv-x="526" 
d="M38 22l20 61q68 -29 142 -29q75 0 123.5 33t48.5 99q0 88 -94 109q-31 7 -85 7h-72v63h61q172 0 172 124q0 51 -30.5 81t-89.5 30q-77 0 -157 -44l-23 58q88 50 185 50q93 0 142.5 -48.5t49.5 -121.5q0 -110 -106 -152v-2q58 -11 91 -51t33 -102q0 -86 -64 -141.5
t-186 -55.5q-90 0 -161 32z" />
    <glyph glyph-name="four" unicode="4" horiz-adv-x="547" 
d="M47 175v55l315 434h52v-427h97v-62h-97v-175h-72v175h-295zM128 236q10 0 38 0.5t42 0.5h134v158q0 91 5 149z" />
    <glyph glyph-name="five" unicode="5" horiz-adv-x="506" 
d="M48 18l20 60q55 -24 121 -24q76 0 123.5 37t47.5 106q0 89 -82 119q-35 14 -114 14h-72v329h345l-16 -62h-257v-205h26q74 0 118 -15q129 -44 129 -178q0 -92 -63 -150.5t-187 -58.5q-83 0 -139 28z" />
    <glyph glyph-name="six" unicode="6" horiz-adv-x="534" 
d="M283 -10q-100 0 -165 79.5t-65 231.5q0 154 76.5 258.5t204.5 104.5q66 0 120 -25l-21 -60q-47 22 -97 22q-82 0 -138 -64.5t-67 -177.5q79 50 163 50q86 0 141.5 -53.5t55.5 -148.5q0 -100 -58 -158.5t-150 -58.5zM282 53q62 0 97 38t35 109q0 68 -36.5 107t-94.5 39
q-79 0 -152 -54q-1 -107 41 -173t110 -66z" />
    <glyph glyph-name="seven" unicode="7" horiz-adv-x="468" 
d="M85 0q62 329 257 597h-299l-17 62h413v-31q-214 -285 -277 -628h-77z" />
    <glyph glyph-name="eight" unicode="8" horiz-adv-x="548" 
d="M269 -10q-101 0 -158.5 48t-57.5 130q0 64 36 108.5t93 63.5v2q-109 48 -109 150q0 76 55.5 124t147.5 48q91 0 143 -49t52 -118q0 -106 -107 -155v-2q131 -48 131 -166q0 -81 -61.5 -132.5t-164.5 -51.5zM273 52q60 0 102.5 31t42.5 87q0 31 -13 54.5t-40 39.5t-50.5 25
t-62.5 21q-51 -16 -86.5 -49.5t-35.5 -83.5q0 -61 41 -93t102 -32zM293 369q101 37 101 123q0 48 -32.5 79.5t-87.5 31.5q-54 0 -88.5 -28.5t-34.5 -75.5q0 -54 38 -83t104 -47z" />
    <glyph glyph-name="nine" unicode="9" horiz-adv-x="528" 
d="M198 -10q-73 0 -137 27l19 62q57 -26 119 -26q89 0 141 65.5t59 186.5h-2q-69 -60 -158 -60q-80 0 -138 50.5t-58 152.5q0 95 57.5 155.5t148.5 60.5q105 0 165.5 -79t60.5 -232q0 -170 -71.5 -266.5t-205.5 -96.5zM254 308q42 0 81.5 21.5t61.5 51.5q0 101 -40.5 161
t-108.5 60q-59 0 -93.5 -41.5t-34.5 -106.5q0 -68 35 -107t99 -39z" />
    <glyph glyph-name="colon" unicode=":" horiz-adv-x="216" 
d="M107 342q-19 0 -33 15t-14 35t14 34.5t33 14.5q20 0 34 -14.5t14 -34.5t-14 -35t-34 -15zM107 -8q-19 0 -33 15t-14 35t14 34.5t33 14.5q20 0 34 -14.5t14 -34.5t-14 -35t-34 -15z" />
    <glyph glyph-name="semicolon" unicode=";" horiz-adv-x="216" 
d="M107 342q-19 0 -33 15t-14 35t14 34.5t33 14.5q20 0 34 -14.5t14 -34.5t-14 -35t-34 -15zM37 -117q46 75 46 150q0 35 -7 67l74 14q6 -33 6 -64q0 -105 -82 -188z" />
    <glyph glyph-name="less" unicode="&#x3c;" horiz-adv-x="592" 
d="M70 228v64l418 188v-66l-349 -153v-2l349 -153v-66z" />
    <glyph glyph-name="equal" unicode="=" 
d="M25 307v62h473v-62h-473zM25 137v63h473v-63h-473z" />
    <glyph glyph-name="greater" unicode="&#x3e;" horiz-adv-x="592" 
d="M105 40v66l348 153v2l-348 153v66l418 -188v-64z" />
    <glyph glyph-name="question" unicode="?" horiz-adv-x="456" 
d="M158 176q-38 41 -38 88q0 41 31 76t67.5 57t67.5 54.5t31 69.5q0 38 -24.5 59t-62.5 21q-71 0 -134 -58l-35 49q75 72 176 72q74 0 116.5 -38.5t42.5 -99.5q0 -40 -21 -73.5t-50.5 -56l-59 -43t-50.5 -43t-21 -46.5q0 -29 23 -55zM192 -8q-19 0 -33 15t-14 35t14 34.5
t33 14.5q20 0 33.5 -14.5t13.5 -34.5q0 -21 -13.5 -35.5t-33.5 -14.5z" />
    <glyph glyph-name="at" unicode="@" horiz-adv-x="768" 
d="M476 -64l16 -50q-66 -26 -149 -26q-134 0 -219.5 90.5t-85.5 239.5q0 171 104 275.5t254 104.5q146 0 240 -87t94 -227q0 -109 -47 -167.5t-120 -58.5q-39 0 -65 22t-32 62h-2q-15 -33 -51.5 -58t-83.5 -25q-52 0 -88 37.5t-36 117.5q0 99 57.5 161.5t143.5 62.5
q71 0 136 -40l-22 -163q-4 -38 -4 -52q0 -71 53 -71q45 0 73 46t28 123q0 110 -72.5 187.5t-203.5 77.5q-125 0 -210 -88.5t-85 -235.5q0 -132 71 -207t181 -75q74 0 125 24zM464 253l11 83q-29 20 -69 20q-57 0 -95.5 -47t-38.5 -121q0 -49 18.5 -75.5t51.5 -26.5
q42 0 76.5 38t45.5 129z" />
    <glyph glyph-name="A" unicode="A" horiz-adv-x="586" 
d="M17 0l250 661h50l252 -661h-79l-66 177h-264l-65 -177h-78zM183 239h218l-69 190q-35 101 -39 114h-2q-4 -16 -40 -114z" />
    <glyph glyph-name="B" unicode="B" horiz-adv-x="534" 
d="M86 0v659h153q100 0 151 -47.5t51 -119.5q0 -50 -23 -88t-64 -55v-2q57 -12 92.5 -55.5t35.5 -104.5q0 -85 -58.5 -136t-165.5 -51h-172zM160 62h98q148 0 148 123q0 55 -38 88t-101 33h-107v-244zM160 368h72q65 0 100 30.5t35 85.5q0 52 -32 82.5t-100 30.5h-75v-229z
" />
    <glyph glyph-name="C" unicode="C" horiz-adv-x="590" 
d="M532 95l20 -59q-86 -46 -184 -46q-145 0 -229.5 92t-84.5 239q0 146 91.5 244.5t235.5 98.5q102 0 163 -35v-70q-75 41 -162 41q-113 0 -181.5 -77t-68.5 -196q0 -122 66 -197.5t177 -75.5q80 0 157 41z" />
    <glyph glyph-name="D" unicode="D" horiz-adv-x="647" 
d="M86 0v659h158q171 0 260 -89.5t89 -236.5q0 -149 -90 -241t-262 -92h-155zM160 62h80q144 0 209.5 76t65.5 198q0 119 -69.5 190t-207.5 71h-78v-535z" />
    <glyph glyph-name="E" unicode="E" horiz-adv-x="468" 
d="M86 0v659h318l-23 -62h-221v-229h217v-61h-217v-245h250v-62h-324z" />
    <glyph glyph-name="F" unicode="F" horiz-adv-x="447" 
d="M86 0v659h319l-24 -62h-221v-229h217v-61h-217v-307h-74z" />
    <glyph glyph-name="G" unicode="G" horiz-adv-x="673" 
d="M595 311v-271q-96 -50 -216 -50q-146 0 -235.5 92t-89.5 238q0 152 94 248t246 96q95 0 180 -35v-70q-82 42 -176 42q-125 0 -195.5 -75t-70.5 -198q0 -126 69.5 -200t186.5 -74q80 0 134 27v230h73z" />
    <glyph glyph-name="H" unicode="H" horiz-adv-x="682" 
d="M86 0v659h74v-290h362v290h74v-659h-74v306h-362v-306h-74z" />
    <glyph glyph-name="I" unicode="I" horiz-adv-x="246" 
d="M86 0v659h74v-659h-74z" />
    <glyph glyph-name="J" unicode="J" horiz-adv-x="288" 
d="M-26 -173l13 63q23 -8 51 -8q52 0 71 27.5t19 82.5v667h74v-682q0 -159 -163 -159q-34 0 -65 9z" />
    <glyph glyph-name="K" unicode="K" horiz-adv-x="537" 
d="M86 0v659h74v-302h2l249 302h89l-274 -326l292 -333h-93l-263 301h-2v-301h-74z" />
    <glyph glyph-name="L" unicode="L" horiz-adv-x="428" 
d="M86 0v659h74v-597h245v-62h-319z" />
    <glyph glyph-name="M" unicode="M" horiz-adv-x="791" 
d="M86 0v659h69l184 -277q42 -63 61 -95h2l61 99l173 273h69v-659h-74v423q0 77 2 112h-2q-20 -38 -47 -80l-163 -260h-39l-177 265q-32 45 -45 73h-2q2 -31 2 -109v-424h-74z" />
    <glyph glyph-name="N" unicode="N" horiz-adv-x="718" 
d="M86 0v659h71l306 -400q60 -81 95 -134h2q-2 72 -2 116v418h74v-659h-62l-318 416q-48 62 -93 127h-2q3 -50 3 -113v-430h-74z" />
    <glyph glyph-name="O" unicode="O" horiz-adv-x="750" 
d="M375 -10q-140 0 -230.5 92.5t-90.5 243.5q0 149 90.5 243.5t230.5 94.5t230.5 -95t90.5 -243q0 -151 -91.5 -243.5t-229.5 -92.5zM375 54q110 0 176.5 74.5t66.5 197.5q0 120 -64.5 197t-178.5 77q-110 0 -176.5 -75.5t-66.5 -198.5t66.5 -197.5t176.5 -74.5z" />
    <glyph glyph-name="P" unicode="P" horiz-adv-x="502" 
d="M86 0v659h124q90 0 143 -30q95 -54 95 -178q0 -61 -27 -109t-83 -74q-55 -25 -135 -25h-43v-243h-74zM160 305h49q58 0 96 20q67 35 67 126q0 87 -63 124q-36 22 -99 22h-50v-292z" />
    <glyph glyph-name="Q" unicode="Q" horiz-adv-x="750" 
d="M290 0q-107 26 -171.5 112.5t-64.5 213.5q0 149 90.5 243.5t230.5 94.5t230.5 -95t90.5 -243q0 -147 -86.5 -238t-220.5 -96q71 -86 164 -86q44 0 77 12l17 -59q-45 -17 -105 -17q-80 0 -138.5 41.5t-113.5 116.5zM375 54q110 0 176.5 74.5t66.5 197.5q0 120 -64.5 197
t-178.5 77q-110 0 -176.5 -75.5t-66.5 -198.5t66.5 -197.5t176.5 -74.5z" />
    <glyph glyph-name="R" unicode="R" horiz-adv-x="540" 
d="M86 0v659h134q95 0 149 -35q77 -48 77 -145q0 -133 -134 -174v-2q25 -12 79 -105l120 -198h-86l-115 191q-49 82 -76 89h-74v-280h-74zM160 342h62q53 0 91 22q57 34 57 108q0 64 -42 94q-36 31 -105 31h-63v-255z" />
    <glyph glyph-name="S" unicode="S" horiz-adv-x="491" 
d="M53 40l31 58q67 -44 143 -44q58 0 95.5 26t37.5 81q0 43 -30 75.5t-72.5 55l-85 46.5t-72.5 64.5t-30 94.5q0 72 52 119.5t142 47.5q83 0 143 -30v-69q-64 36 -141 36q-50 0 -84.5 -24t-34.5 -73q0 -41 30 -72t72.5 -53.5l85 -47t72.5 -66.5t30 -99q0 -82 -57.5 -129
t-153.5 -47q-101 0 -173 50z" />
    <glyph glyph-name="T" unicode="T" horiz-adv-x="496" 
d="M209 0v597h-189v62h471l-22 -62h-186v-597h-74z" />
    <glyph glyph-name="U" unicode="U" horiz-adv-x="652" 
d="M326 -10q-181 0 -230 140q-15 47 -15 106v423h74v-416q0 -54 13 -92q36 -98 158 -98t158 98q13 34 13 95v413h74v-423q0 -64 -17 -108q-49 -138 -228 -138z" />
    <glyph glyph-name="V" unicode="V" horiz-adv-x="607" 
d="M277 -3l-261 662h80l155 -401l53 -144h2q28 84 52 146l154 399h80l-262 -662h-53z" />
    <glyph glyph-name="W" unicode="W" horiz-adv-x="900" 
d="M238 -3l-222 662h82l128 -396l44 -148h2q16 54 48 147l98 285l-39 112h80l133 -398q35 -102 46 -145h2q19 74 41 143l125 400h78l-218 -662h-59l-105 309q-32 96 -46 142h-3q-16 -56 -46 -142l-109 -309h-60z" />
    <glyph glyph-name="X" unicode="X" horiz-adv-x="588" 
d="M21 0l230 332l-216 327h86l178 -270l184 270h84l-224 -326l221 -333h-85l-183 276l-191 -276h-84z" />
    <glyph glyph-name="Y" unicode="Y" horiz-adv-x="536" 
d="M233 0v263l-217 396h82l172 -323h2l168 323h80l-214 -397v-262h-73z" />
    <glyph glyph-name="Z" unicode="Z" horiz-adv-x="546" 
d="M50 0l332 597h-310l-20 62h444l-330 -597h347v-62h-463z" />
    <glyph glyph-name="bracketleft" unicode="[" horiz-adv-x="277" 
d="M86 -233v1004h164v-58h-96v-888h96v-58h-164z" />
    <glyph glyph-name="backslash" unicode="\" horiz-adv-x="362" 
d="M269 -33l-249 729h72l249 -729h-72z" />
    <glyph glyph-name="bracketright" unicode="]" horiz-adv-x="277" 
d="M28 -233v58h96v888h-96v58h164v-1004h-164z" />
    <glyph glyph-name="asciicircum" unicode="^" horiz-adv-x="586" 
d="M99 287l161 372h66l161 -372h-67l-126 303h-2l-127 -303h-66z" />
    <glyph glyph-name="underscore" unicode="_" horiz-adv-x="448" 
d="M0 -116v50h448v-50h-448z" />
    <glyph glyph-name="grave" unicode="`" horiz-adv-x="360" 
d="M165 531l-86 147h87l58 -147h-59z" />
    <glyph glyph-name="grave" unicode="&#x300;" horiz-adv-x="360" 
d="M165 531l-86 147h87l58 -147h-59z" />
    <glyph glyph-name="a" unicode="a" horiz-adv-x="461" 
d="M344 0l-14 53q-67 -63 -142 -63q-66 0 -108 39.5t-42 106.5q0 91 80 128q39 20 118 23l90 3v30q0 52 -28 78t-74 26q-66 0 -130 -39l-28 52q75 48 166 48q77 0 122.5 -40t45.5 -121v-163q0 -125 9 -161h-65zM326 234l-83 -3q-57 -1 -89 -18q-41 -23 -41 -73
q0 -39 24 -63.5t64 -24.5q66 0 125 62v120z" />
    <glyph glyph-name="b" unicode="b" horiz-adv-x="500" 
d="M201 -10q-80 0 -132 29v689h73v-245q57 22 107 22q92 0 152 -62t60 -173q0 -121 -72.5 -190.5t-187.5 -69.5zM211 53q78 0 126 52.5t48 141.5q0 79 -38 127t-108 48q-14 0 -27.5 -2t-24.5 -5t-18 -6l-16 -7t-11 -5v-331q36 -13 69 -13z" />
    <glyph glyph-name="c" unicode="c" horiz-adv-x="425" 
d="M264 -10q-105 0 -164.5 69t-59.5 173q0 107 64.5 180t170.5 73q65 0 118 -29v-65q-52 32 -114 32q-74 0 -118.5 -52t-44.5 -134q0 -87 42 -135.5t115 -48.5q56 0 114 32l23 -52q-64 -43 -146 -43z" />
    <glyph glyph-name="d" unicode="d" horiz-adv-x="507" 
d="M287 -10q-107 0 -177 63t-70 178q0 113 70.5 183.5t173.5 70.5q43 0 80 -10v233h73v-686q-59 -32 -150 -32zM290 53q42 0 74 13v344q-36 12 -75 12q-74 0 -123.5 -50.5t-49.5 -138.5q0 -83 46.5 -131.5t127.5 -48.5z" />
    <glyph glyph-name="e" unicode="e" horiz-adv-x="463" 
d="M262 -10q-107 0 -164.5 71.5t-57.5 180.5q0 108 54 175.5t140 67.5q89 0 138.5 -65t49.5 -178v-18h-307q2 -76 43.5 -124t114.5 -48q59 0 116 32l24 -52q-64 -42 -151 -42zM116 281h229q-1 59 -29.5 101.5t-81.5 42.5t-85 -41.5t-33 -102.5z" />
    <glyph glyph-name="f" unicode="f" horiz-adv-x="302" 
d="M99 0v413h-63v60h63v83q0 80 39.5 116t96.5 36q40 0 73 -15l-16 -60q-28 11 -51 11q-69 0 -69 -85v-86h120l-22 -60h-98v-413h-73z" />
    <glyph glyph-name="g" unicode="g" horiz-adv-x="474" 
d="M227 -237q-95 0 -151 36t-56 100q0 79 88 122q-34 19 -34 59q0 48 50 93q-73 48 -73 143q0 72 49 120t125 48q49 0 89 -18q6 -3 10 1q39 39 97 39q14 0 29 -3l-18 -58q-14 3 -27 3q-26 0 -46 -13q54 -48 54 -122q0 -76 -50.5 -123.5t-132.5 -47.5q-32 0 -62 10
q-25 -28 -25 -54q0 -25 32 -38t78 -18.5t92 -15t78 -38t32 -77.5q0 -67 -61.5 -107.5t-166.5 -40.5zM233 -179q72 0 110 23t38 59q0 30 -25 48t-55 23t-77 12t-71 14q-65 -43 -65 -89q0 -42 40 -66t105 -24zM231 203q47 0 77 29.5t30 81.5q0 47 -30 78t-77 31
q-48 0 -77.5 -29.5t-29.5 -78.5q0 -50 29 -81t78 -31z" />
    <glyph glyph-name="h" unicode="h" horiz-adv-x="510" 
d="M69 0v708h73v-295q86 72 164 72q61 0 100.5 -41t39.5 -125v-319h-73v294q0 125 -85 125q-64 0 -146 -71v-348h-73z" />
    <glyph glyph-name="i" unicode="i" horiz-adv-x="225" 
d="M76 0v473h73v-473h-73zM112 580q-22 0 -35.5 14t-13.5 35t14 35.5t35 14.5q22 0 36 -14t14 -36q0 -21 -14 -35t-36 -14z" />
    <glyph glyph-name="j" unicode="j" horiz-adv-x="236" 
d="M-49 -223l16 61q22 -10 47 -10q38 0 55.5 24t17.5 77v544h73v-558q0 -76 -38 -114t-99 -38q-41 0 -72 14zM123 580q-21 0 -34.5 14t-13.5 35t13.5 35.5t34.5 14.5q22 0 36 -14t14 -36q0 -21 -14 -35t-36 -14z" />
    <glyph glyph-name="k" unicode="k" horiz-adv-x="439" 
d="M69 0v708h73v-409h2l180 174h89l-207 -200l229 -273h-89l-202 243h-2v-243h-73z" />
    <glyph glyph-name="l" unicode="l" horiz-adv-x="242" 
d="M69 86v622h73v-599q0 -28 8.5 -39t28.5 -11q13 0 29 7l16 -58q-30 -14 -66 -14q-44 0 -66.5 24t-22.5 68z" />
    <glyph glyph-name="m" unicode="m" horiz-adv-x="802" 
d="M65 0v473h62l9 -61q85 73 164 73q89 0 122 -81q91 81 176 81q61 0 100.5 -41.5t39.5 -124.5v-319h-73v296q0 58 -18 90.5t-65 32.5q-64 0 -145 -70q2 -20 2 -29v-320h-73v295q0 59 -18 91.5t-65 32.5q-65 0 -144 -70v-349h-74z" />
    <glyph glyph-name="n" unicode="n" horiz-adv-x="506" 
d="M65 0v473h62l9 -61q86 73 166 73q61 0 100.5 -41t39.5 -125v-319h-73v294q0 125 -85 125q-65 0 -145 -71v-348h-74z" />
    <glyph glyph-name="o" unicode="o" horiz-adv-x="516" 
d="M258 -10q-97 0 -157.5 70.5t-60.5 176.5q0 107 60 177.5t159 70.5q97 0 157.5 -71t60.5 -177t-60.5 -176.5t-158.5 -70.5zM258 53q65 0 103.5 51t38.5 133t-38.5 133.5t-102.5 51.5q-65 0 -104 -51t-39 -134q0 -82 38.5 -133t103.5 -51z" />
    <glyph glyph-name="p" unicode="p" horiz-adv-x="501" 
d="M65 -237v693q76 29 156 29q113 0 176.5 -64.5t63.5 -181.5q0 -114 -67 -181.5t-172 -67.5q-44 0 -83 17v-244h-74zM139 73q42 -20 81 -20q79 0 122 51t43 137q0 90 -46 135.5t-120 45.5q-41 0 -80 -12v-337z" />
    <glyph glyph-name="q" unicode="q" horiz-adv-x="504" 
d="M242 -10q-84 0 -143 63t-59 171q0 122 72 191.5t183 69.5q80 0 145 -28v-694h-73v263q-55 -36 -125 -36zM255 53q62 0 112 41v314q-34 14 -76 14q-82 0 -128.5 -53.5t-46.5 -140.5q0 -78 38.5 -126.5t100.5 -48.5z" />
    <glyph glyph-name="r" unicode="r" horiz-adv-x="320" 
d="M65 0v473h62l9 -60q66 72 133 72q30 0 51 -12l-26 -67q-20 10 -41 10q-47 0 -114 -68v-348h-74z" />
    <glyph glyph-name="s" unicode="s" horiz-adv-x="379" 
d="M26 30l24 57q56 -35 118 -35q44 0 72.5 19t28.5 57q0 28 -23 47.5t-55.5 32.5t-64.5 28.5t-55 45.5t-23 73q0 56 42 93t118 37q60 0 117 -22v-65q-59 26 -114 26q-91 0 -91 -66q0 -29 23 -48.5t55.5 -32t65.5 -28t56 -46t23 -74.5q0 -68 -49 -103.5t-126 -35.5
q-79 0 -142 40z" />
    <glyph glyph-name="t" unicode="t" horiz-adv-x="347" 
d="M208 -10q-51 0 -78.5 28.5t-27.5 81.5v313h-80v60h80v107l73 24v-131h141l-22 -60h-119v-301q0 -59 49 -59q39 0 77 26l26 -52q-51 -37 -119 -37z" />
    <glyph glyph-name="u" unicode="u" horiz-adv-x="505" 
d="M204 -10q-40 0 -75.5 20.5t-51.5 67.5q-12 39 -12 86v309h74v-291q0 -51 8 -74q17 -53 78 -53q39 0 76 20t57 47v351h73v-313q0 -120 10 -160h-66l-14 55q-74 -65 -157 -65z" />
    <glyph glyph-name="v" unicode="v" horiz-adv-x="447" 
d="M193 -3l-183 476h77l138 -378h2l134 378h76l-181 -476h-63z" />
    <glyph glyph-name="w" unicode="w" horiz-adv-x="690" 
d="M167 -3l-156 476h77l112 -377h2l109 377h69l113 -377h2l110 377h75l-157 -476h-64l-112 379h-2l-113 -379h-65z" />
    <glyph glyph-name="x" unicode="x" horiz-adv-x="444" 
d="M11 0l171 237l-164 236h82l125 -183l128 183h80l-167 -234l166 -239h-81l-129 186l-130 -186h-81z" />
    <glyph glyph-name="y" unicode="y" horiz-adv-x="466" 
d="M-15 -221l18 60q29 -13 65 -13q100 0 150 171l-208 476h79l162 -383h2l127 383h76l-177 -510q-42 -119 -92 -159.5t-118 -40.5q-46 0 -84 16z" />
    <glyph glyph-name="z" unicode="z" horiz-adv-x="382" 
d="M21 0l239 413h-208l-17 60h336l-237 -413h235v-60h-348z" />
    <glyph glyph-name="braceleft" unicode="{" horiz-adv-x="313" 
d="M268 -222q-85 12 -119 55t-34 119v216q0 71 -68 75v60q68 4 68 75v216q0 76 34 119t119 55l14 -67q-51 -8 -73 -35.5t-22 -77.5v-196q0 -105 -67 -118v-2q67 -13 67 -118v-196q0 -50 22 -77.5t73 -35.5z" />
    <glyph glyph-name="bar" unicode="|" horiz-adv-x="243" 
d="M87 -237v1017h70v-1017h-70z" />
    <glyph glyph-name="braceright" unicode="}" horiz-adv-x="313" 
d="M32 -155q51 8 73 35.5t22 77.5v196q0 105 67 118v2q-67 13 -67 118v196q0 50 -22 77.5t-73 35.5l14 67q85 -12 119 -55t34 -119v-216q0 -71 68 -75v-60q-68 -4 -68 -75v-216q0 -76 -34 -119t-119 -55z" />
    <glyph glyph-name="asciitilde" unicode="~" 
d="M68 211l-41 44q64 65 129 65q36 0 111 -30.5t102 -30.5q24 0 41.5 10t44.5 34l41 -44q-64 -65 -129 -65q-34 0 -110.5 30.5t-102.5 30.5q-24 0 -41.5 -10t-44.5 -34z" />
    <glyph glyph-name="exclamdown" unicode="&#xa1;" horiz-adv-x="267" 
d="M133 385q-19 0 -33 15t-14 35t14 34.5t33 14.5q20 0 34 -14.5t14 -34.5t-14 -35t-34 -15zM97 -181v52q0 202 2.5 273t14.5 158h38q12 -86 14.5 -158t2.5 -274v-51h-72z" />
    <glyph glyph-name="cent" unicode="&#xa2;" 
d="M250 0v105q-79 13 -126 75.5t-47 146.5t48 149.5t126 80.5v102h60v-96q58 -1 104 -27v-61q-49 28 -114 28t-108 -47.5t-43 -122.5q0 -79 41 -124.5t106 -45.5q59 0 113 29l21 -54q-51 -31 -121 -35v-103h-60z" />
    <glyph glyph-name="sterling" unicode="&#xa3;" 
d="M69 0v53q37 18 58.5 68.5t27 94t5.5 90.5h-79v62h79v87q0 51 13.5 89.5t33.5 60.5t47 36t50 18.5t47 4.5q56 0 109 -19l-15 -60q-43 16 -86 16q-54 0 -90 -35.5t-36 -117.5v-80h191l-22 -62h-169q0 -176 -69 -246v-2q62 4 98 4h196v-62h-389z" />
    <glyph glyph-name="currency" unicode="&#xa4;" 
d="M459 83l-64 65q-59 -45 -134 -45t-134 45l-64 -65l-47 47l65 64q-46 59 -46 135q0 77 45 134l-65 64l47 47l64 -65q60 46 135 46t135 -46l64 64l46 -46l-64 -64q45 -61 45 -134q0 -75 -46 -135l64 -64zM261 163q67 0 113.5 48.5t46.5 117.5t-46.5 117t-113.5 48
q-68 0 -114.5 -48t-46.5 -117t46.5 -117.5t114.5 -48.5z" />
    <glyph glyph-name="yen" unicode="&#xa5;" 
d="M225 0v123h-156v55h156v84h-156v55h131l-164 342h79l146 -323h1l145 323h79l-164 -342h131v-55h-155v-84h155v-55h-155v-123h-73z" />
    <glyph glyph-name="brokenbar" unicode="&#xa6;" horiz-adv-x="243" 
d="M87 426v354h70v-354h-70zM87 -237v355h70v-355h-70z" />
    <glyph glyph-name="section" unicode="&#xa7;" horiz-adv-x="526" 
d="M54 -115l31 56q67 -43 142 -43q55 0 93 23t38 77q0 40 -30 69t-73 48.5l-86 41t-73 59t-30 89.5q0 45 23 83t62 61q-50 45 -50 114q0 70 51 115t133 45q90 0 150 -31l-1 -67q-63 36 -143 36q-48 0 -82 -23.5t-34 -68.5q0 -34 22 -60.5t54.5 -42t70.5 -35.5t70.5 -39.5
t54.5 -55.5t22 -84q0 -89 -82 -141q46 -43 46 -108q0 -82 -57.5 -125t-148.5 -43q-100 0 -173 50zM347 143q52 38 52 99q0 29 -12.5 51.5t-36 40t-46.5 29.5l-57 28.5t-54 28.5q-57 -33 -57 -98q0 -28 13 -51t37 -40t48.5 -29.5l58 -29t54.5 -29.5z" />
    <glyph glyph-name="dieresis" unicode="&#xa8;" horiz-adv-x="360" 
d="M91 561q-18 0 -30.5 12.5t-12.5 30.5q0 19 12.5 31.5t30.5 12.5t31 -12.5t13 -31.5q0 -18 -13 -30.5t-31 -12.5zM269 561q-18 0 -31 12.5t-13 30.5q0 19 13 31.5t31 12.5t30.5 -12.5t12.5 -31.5q0 -18 -12.5 -30.5t-30.5 -12.5z" />
    <glyph glyph-name="dieresis" unicode="&#x308;" horiz-adv-x="360" 
d="M91 561q-18 0 -30.5 12.5t-12.5 30.5q0 19 12.5 31.5t30.5 12.5t31 -12.5t13 -31.5q0 -18 -13 -30.5t-31 -12.5zM269 561q-18 0 -31 12.5t-13 30.5q0 19 13 31.5t31 12.5t30.5 -12.5t12.5 -31.5q0 -18 -12.5 -30.5t-30.5 -12.5z" />
    <glyph glyph-name="copyright" unicode="&#xa9;" horiz-adv-x="780" 
d="M390 -10q-143 0 -237.5 97t-94.5 240t94.5 240t237.5 97q142 0 237 -97t95 -240t-95 -240t-237 -97zM390 34q121 0 200.5 83.5t79.5 209.5t-79.5 209t-200.5 83t-200.5 -83t-79.5 -209t79.5 -209.5t200.5 -83.5zM492 200l17 -40q-53 -33 -114 -33q-82 0 -130 55.5
t-48 139.5q0 86 50.5 145t136.5 59q54 0 93 -22v-50q-42 25 -93 25q-60 0 -96.5 -42.5t-36.5 -109.5q0 -72 34.5 -113t94.5 -41q44 0 92 27z" />
    <glyph glyph-name="ordfeminine" unicode="&#xaa;" horiz-adv-x="352" 
d="M250 270l-9 34q-45 -41 -100 -41q-48 0 -78.5 28.5t-30.5 76.5q0 105 149 108l54 2v15q0 32 -19 48.5t-51 16.5q-46 0 -91 -26l-24 44q53 35 121 35q57 0 91 -29t34 -91v-106q0 -82 10 -115h-56zM235 356v73l-56 -2q-83 -3 -83 -56q0 -24 15 -39.5t40 -15.5q41 0 84 40z
" />
    <glyph glyph-name="guillemotleft" unicode="&#xab;" horiz-adv-x="551" 
d="M213 13l-166 228l166 229l59 -35l-141 -194l141 -193zM423 13l-166 228l166 229l58 -35l-140 -194l140 -193z" />
    <glyph glyph-name="logicalnot" unicode="&#xac;" 
d="M429 14v221h-404v63h473v-284h-69z" />
    <glyph glyph-name="registered" unicode="&#xae;" horiz-adv-x="580" 
d="M289 180q-103 0 -170.5 69.5t-67.5 172.5q0 104 67 173t171 69q102 0 170 -69.5t68 -172.5t-68 -172.5t-170 -69.5zM289 217q86 0 141.5 59t55.5 146q0 88 -55.5 146.5t-141.5 58.5q-87 0 -142.5 -58.5t-55.5 -146.5q0 -87 55.5 -146t142.5 -59zM212 298v258h66
q30 0 47 -6q45 -16 45 -64q0 -55 -62 -68v-2q18 -12 70 -104l8 -14h-44q-57 102 -73 110h-19v-110h-38zM250 438h20q59 0 59 46q0 28 -22 36q-12 6 -38 6h-19v-88z" />
    <glyph glyph-name="macron" unicode="&#xaf;" horiz-adv-x="360" 
d="M56 574v59h248v-59h-248z" />
    <glyph glyph-name="macron" unicode="&#x304;" horiz-adv-x="360" 
d="M56 574v59h248v-59h-248z" />
    <glyph glyph-name="macron" unicode="&#x2c9;" horiz-adv-x="360" 
d="M56 574v59h248v-59h-248z" />
    <glyph glyph-name="degree" unicode="&#xb0;" horiz-adv-x="394" 
d="M196 353q-66 0 -109.5 44t-43.5 109t44 109t110 44t110 -44t44 -109t-44.5 -109t-110.5 -44zM197 406q40 0 67.5 28.5t27.5 71.5t-27.5 71.5t-67.5 28.5t-67.5 -28.5t-27.5 -71.5t27.5 -71.5t67.5 -28.5z" />
    <glyph glyph-name="plusminus" unicode="&#xb1;" 
d="M227 120v158h-202v63h202v158h69v-158h202v-63h-202v-158h-69zM25 0v63h473v-63h-473z" />
    <glyph glyph-name="twosuperior" unicode="&#xb2;" horiz-adv-x="327" 
d="M30 404q2 53 23 94t48 64.5t54.5 43t46 40t18.5 43.5t-16.5 36.5t-44.5 13.5q-40 0 -95 -30l-21 48q63 36 123 36q57 0 88 -27.5t31 -73.5q0 -31 -16.5 -56t-41 -43l-49.5 -36t-46.5 -43t-27.5 -54h181v-56h-255z" />
    <glyph glyph-name="threesuperior" unicode="&#xb3;" horiz-adv-x="330" 
d="M21 419l17 50q41 -19 85 -19q91 0 91 63q0 39 -41 52q-21 8 -64 8h-40v51h35q38 0 61 10q37 16 37 53q0 26 -18.5 39t-46.5 13q-41 0 -87 -21l-19 48q58 27 115 27q55 0 88 -27.5t33 -71.5q0 -65 -69 -90v-2q38 -7 59.5 -31.5t21.5 -62.5q0 -48 -39 -79.5t-115 -31.5
q-60 0 -104 22z" />
    <glyph glyph-name="acute" unicode="&#xb4;" horiz-adv-x="360" 
d="M137 531l58 147h86l-86 -147h-58z" />
    <glyph glyph-name="acute" unicode="&#x301;" horiz-adv-x="360" 
d="M137 531l58 147h86l-86 -147h-58z" />
    <glyph glyph-name="mu" unicode="&#xb5;" horiz-adv-x="530" 
d="M65 -237v710h74v-310q0 -49 26.5 -78.5t74.5 -29.5q45 0 81.5 31.5t36.5 96.5v290h73v-331q0 -50 8 -66t28 -16q17 0 29 7l16 -59q-30 -14 -64 -14q-33 0 -52 19.5t-23 54.5h-2q-48 -78 -134 -78q-66 0 -100 47h-2q4 -52 4 -131v-143h-74z" />
    <glyph glyph-name="mu" unicode="&#x3bc;" horiz-adv-x="530" 
d="M65 -237v710h74v-310q0 -49 26.5 -78.5t74.5 -29.5q45 0 81.5 31.5t36.5 96.5v290h73v-331q0 -50 8 -66t28 -16q17 0 29 7l16 -59q-30 -14 -64 -14q-33 0 -52 19.5t-23 54.5h-2q-48 -78 -134 -78q-66 0 -100 47h-2q4 -52 4 -131v-143h-74z" />
    <glyph glyph-name="paragraph" unicode="&#xb6;" horiz-adv-x="609" 
d="M265 -160v380q-90 4 -144.5 64.5t-54.5 154.5q0 97 60 158.5t163 61.5h217v-819h-66v762h-109v-762h-66z" />
    <glyph glyph-name="periodcentered" unicode="&#xb7;" horiz-adv-x="216" 
d="M107 204q-19 0 -33 15t-14 35t14 34.5t33 14.5q20 0 34 -14.5t14 -34.5t-14 -35t-34 -15z" />
    <glyph glyph-name="periodcentered" unicode="&#x2219;" horiz-adv-x="216" 
d="M107 204q-19 0 -33 15t-14 35t14 34.5t33 14.5q20 0 34 -14.5t14 -34.5t-14 -35t-34 -15z" />
    <glyph glyph-name="cedilla" unicode="&#xb8;" horiz-adv-x="360" 
d="M89 -200l13 43q23 -10 50 -10q23 0 38.5 10t15.5 29q0 17 -13.5 26t-29.5 10.5t-43 1.5l28 90h59l-17 -54q81 -6 81 -72q0 -40 -31.5 -63t-83.5 -23q-37 0 -67 12z" />
    <glyph glyph-name="cedilla" unicode="&#x327;" horiz-adv-x="360" 
d="M89 -200l13 43q23 -10 50 -10q23 0 38.5 10t15.5 29q0 17 -13.5 26t-29.5 10.5t-43 1.5l28 90h59l-17 -54q81 -6 81 -72q0 -40 -31.5 -63t-83.5 -23q-37 0 -67 12z" />
    <glyph glyph-name="onesuperior" unicode="&#xb9;" horiz-adv-x="324" 
d="M176 404v322l-119 -47l-23 48l154 65h50v-388h-62z" />
    <glyph glyph-name="ordmasculine" unicode="&#xba;" horiz-adv-x="375" 
d="M187 263q-70 0 -114 50t-44 124t44 124t115 50q70 0 114 -50t44 -124t-44 -124t-115 -50zM187 317q43 0 69.5 33.5t26.5 86.5t-26.5 86.5t-68.5 33.5q-44 0 -70 -33.5t-26 -86.5t26 -86.5t69 -33.5z" />
    <glyph glyph-name="guillemotright" unicode="&#xbb;" horiz-adv-x="551" 
d="M69 48l140 193l-140 194l58 35l166 -229l-166 -228zM278 48l140 193l-140 194l59 35l165 -229l-165 -228z" />
    <glyph glyph-name="onequarter" unicode="&#xbc;" horiz-adv-x="861" 
d="M173 0l411 659h66l-412 -659h-65zM196 275v322l-119 -47l-23 48l154 65h50v-388h-62zM464 88v41l192 259h55v-250h53v-50h-53v-88h-62v88h-185zM533 138h73h43v42q0 70 3 119z" />
    <glyph glyph-name="onehalf" unicode="&#xbd;" horiz-adv-x="860" 
d="M166 0l411 659h66l-412 -659h-65zM191 275v322l-119 -47l-23 48l154 65h50v-388h-62zM529 0q2 53 23 94t48 64.5t54.5 43t46 40t18.5 43.5t-16.5 36.5t-44.5 13.5q-40 0 -95 -30l-21 48q63 36 123 36q57 0 88 -27.5t31 -73.5q0 -31 -16.5 -56t-41 -43l-49.5 -36
t-46.5 -43t-27.5 -54h181v-56h-255z" />
    <glyph glyph-name="threequarters" unicode="&#xbe;" horiz-adv-x="861" 
d="M195 0l411 659h66l-412 -659h-65zM51 290l17 50q41 -19 85 -19q91 0 91 63q0 39 -41 52q-21 8 -64 8h-40v51h35q38 0 61 10q37 16 37 53q0 26 -18.5 39t-46.5 13q-41 0 -87 -21l-19 48q58 27 115 27q55 0 88 -27.5t33 -71.5q0 -65 -69 -90v-2q38 -7 59.5 -31.5
t21.5 -62.5q0 -48 -39 -79.5t-115 -31.5q-60 0 -104 22zM485 88v41l192 259h55v-250h53v-50h-53v-88h-62v88h-185zM554 138h73h43v42q0 70 3 119z" />
    <glyph glyph-name="questiondown" unicode="&#xbf;" horiz-adv-x="453" 
d="M265 386q-20 0 -34 14.5t-14 35.5q0 20 14 34.5t34 14.5q19 0 33 -14.5t14 -34.5q0 -21 -13.5 -35.5t-33.5 -14.5zM361 -65l35 -50q-77 -72 -177 -72q-73 0 -115.5 38.5t-42.5 99.5q0 40 21 73.5t50.5 56l59 43t50.5 43t21 46.5q0 29 -23 55l59 33q37 -38 37 -87
q0 -34 -20.5 -63t-49 -50l-57.5 -41.5t-49.5 -46.5t-20.5 -56q0 -39 24.5 -60t63.5 -21q70 0 134 59z" />
    <glyph glyph-name="Agrave" unicode="&#xc0;" horiz-adv-x="586" 
d="M17 0l250 661h50l252 -661h-79l-66 177h-264l-65 -177h-78zM183 239h218l-69 190q-35 101 -39 114h-2q-4 -16 -40 -114zM277 696l-86 147h87l58 -147h-59z" />
    <glyph glyph-name="Aacute" unicode="&#xc1;" horiz-adv-x="586" 
d="M17 0l250 661h50l252 -661h-79l-66 177h-264l-65 -177h-78zM183 239h218l-69 190q-35 101 -39 114h-2q-4 -16 -40 -114zM249 696l58 147h86l-86 -147h-58z" />
    <glyph glyph-name="Acircumflex" unicode="&#xc2;" horiz-adv-x="586" 
d="M17 0l250 661h50l252 -661h-79l-66 177h-264l-65 -177h-78zM183 239h218l-69 190q-35 101 -39 114h-2q-4 -16 -40 -114zM160 696l98 147h69l99 -147h-64l-69 100l-70 -100h-63z" />
    <glyph glyph-name="Atilde" unicode="&#xc3;" horiz-adv-x="586" 
d="M17 0l250 661h50l252 -661h-79l-66 177h-264l-65 -177h-78zM183 239h218l-69 190q-35 101 -39 114h-2q-4 -16 -40 -114zM153 726v23q0 35 20 55.5t51 20.5q30 0 72 -24t56 -24q26 0 26 42h53v-22q0 -35 -20 -56t-51 -21q-29 0 -71 24t-57 24q-26 0 -26 -42h-53z" />
    <glyph glyph-name="Adieresis" unicode="&#xc4;" horiz-adv-x="586" 
d="M17 0l250 661h50l252 -661h-79l-66 177h-264l-65 -177h-78zM183 239h218l-69 190q-35 101 -39 114h-2q-4 -16 -40 -114zM203 706q-18 0 -30.5 12.5t-12.5 31.5q0 18 12.5 30.5t30.5 12.5t31 -12.5t13 -30.5q0 -19 -13 -31.5t-31 -12.5zM381 706q-18 0 -31 12.5t-13 31.5
q0 18 13 30.5t31 12.5t30.5 -12.5t12.5 -30.5q0 -19 -12.5 -31.5t-30.5 -12.5z" />
    <glyph glyph-name="Aring" unicode="&#xc5;" horiz-adv-x="586" 
d="M17 0l246 654q-34 7 -54.5 31.5t-20.5 60.5q0 43 28.5 69t74.5 26t74.5 -26t28.5 -69q0 -35 -20.5 -59.5t-54.5 -31.5l250 -655h-79l-66 177h-264l-65 -177h-78zM183 239h218l-69 191l-39 117h-2q-4 -17 -40 -117zM291 692q22 0 35.5 14.5t13.5 39.5t-13.5 39.5
t-35.5 14.5q-23 0 -36.5 -14.5t-13.5 -39.5t13.5 -39.5t36.5 -14.5z" />
    <glyph glyph-name="AE" unicode="&#xc6;" horiz-adv-x="796" 
d="M16 0l343 659h373l-23 -62h-274l39 -229h231v-61h-220l43 -245h210v-62h-275l-31 177h-245l-93 -177h-78zM219 239h202l-32 195l-9 49.5t-10 59.5h-2q-17 -41 -59 -124z" />
    <glyph glyph-name="Ccedilla" unicode="&#xc7;" horiz-adv-x="590" 
d="M246 -200l13 43q23 -10 50 -10q23 0 38.5 10t15.5 29q0 24 -22.5 31.5t-63.5 6.5l26 86q-117 19 -183 107t-66 218q0 146 91.5 244.5t235.5 98.5q102 0 163 -35v-70q-75 41 -162 41q-113 0 -181.5 -77t-68.5 -196q0 -122 66 -197.5t177 -75.5q80 0 157 41l20 -59
q-87 -46 -191 -46l-14 -44q81 -6 81 -72q0 -40 -31.5 -63t-83.5 -23q-37 0 -67 12z" />
    <glyph glyph-name="Egrave" unicode="&#xc8;" horiz-adv-x="468" 
d="M86 0v659h318l-23 -62h-221v-229h217v-61h-217v-245h250v-62h-324zM224 696l-86 147h87l58 -147h-59z" />
    <glyph glyph-name="Eacute" unicode="&#xc9;" horiz-adv-x="468" 
d="M86 0v659h318l-23 -62h-221v-229h217v-61h-217v-245h250v-62h-324zM199 696l58 147h86l-86 -147h-58z" />
    <glyph glyph-name="Ecircumflex" unicode="&#xca;" horiz-adv-x="468" 
d="M86 0v659h318l-23 -62h-221v-229h217v-61h-217v-245h250v-62h-324zM108 696l98 147h69l99 -147h-64l-69 100l-70 -100h-63z" />
    <glyph glyph-name="Edieresis" unicode="&#xcb;" horiz-adv-x="468" 
d="M86 0v659h318l-23 -62h-221v-229h217v-61h-217v-245h250v-62h-324zM153 706q-18 0 -30.5 12.5t-12.5 31.5q0 18 12.5 30.5t30.5 12.5t31 -12.5t13 -30.5q0 -19 -13 -31.5t-31 -12.5zM331 706q-18 0 -31 12.5t-13 31.5q0 18 13 30.5t31 12.5t30.5 -12.5t12.5 -30.5
q0 -19 -12.5 -31.5t-30.5 -12.5z" />
    <glyph glyph-name="Igrave" unicode="&#xcc;" horiz-adv-x="246" 
d="M86 0v659h74v-659h-74zM107 696l-86 147h87l58 -147h-59z" />
    <glyph glyph-name="Iacute" unicode="&#xcd;" horiz-adv-x="246" 
d="M86 0v659h74v-659h-74zM79 696l58 147h86l-86 -147h-58z" />
    <glyph glyph-name="Icircumflex" unicode="&#xce;" horiz-adv-x="246" 
d="M86 0v659h74v-659h-74zM-11 696l98 147h69l99 -147h-64l-69 100l-70 -100h-63z" />
    <glyph glyph-name="Idieresis" unicode="&#xcf;" horiz-adv-x="246" 
d="M86 0v659h74v-659h-74zM33 706q-18 0 -30.5 12.5t-12.5 31.5q0 18 12.5 30.5t30.5 12.5t31 -12.5t13 -30.5q0 -19 -13 -31.5t-31 -12.5zM211 706q-18 0 -31 12.5t-13 31.5q0 18 13 30.5t31 12.5t30.5 -12.5t12.5 -30.5q0 -19 -12.5 -31.5t-30.5 -12.5z" />
    <glyph glyph-name="Eth" unicode="&#xd0;" horiz-adv-x="647" 
d="M86 0v302h-77v62h77v295h158q171 0 260 -89.5t89 -236.5q0 -149 -90 -241t-262 -92h-155zM160 62h80q144 0 209.5 76t65.5 198q0 119 -69.5 190t-207.5 71h-78v-233h164v-62h-164v-240z" />
    <glyph glyph-name="Ntilde" unicode="&#xd1;" horiz-adv-x="718" 
d="M86 0v659h71l306 -400q60 -81 95 -134h2q-2 72 -2 116v418h74v-659h-62l-318 416q-48 62 -93 127h-2q3 -50 3 -113v-430h-74zM222 726v23q0 35 20 55.5t51 20.5q29 0 71 -24t57 -24q26 0 26 42h53v-22q0 -35 -20 -56t-51 -21q-29 0 -71 24t-57 24q-26 0 -26 -42h-53z" />
    <glyph glyph-name="Ograve" unicode="&#xd2;" horiz-adv-x="750" 
d="M375 -10q-140 0 -230.5 92.5t-90.5 243.5q0 149 90.5 243.5t230.5 94.5t230.5 -95t90.5 -243q0 -151 -91.5 -243.5t-229.5 -92.5zM375 54q110 0 176.5 74.5t66.5 197.5q0 120 -64.5 197t-178.5 77q-110 0 -176.5 -75.5t-66.5 -198.5t66.5 -197.5t176.5 -74.5zM359 696
l-86 147h87l58 -147h-59z" />
    <glyph glyph-name="Oacute" unicode="&#xd3;" horiz-adv-x="750" 
d="M375 -10q-140 0 -230.5 92.5t-90.5 243.5q0 149 90.5 243.5t230.5 94.5t230.5 -95t90.5 -243q0 -151 -91.5 -243.5t-229.5 -92.5zM375 54q110 0 176.5 74.5t66.5 197.5q0 120 -64.5 197t-178.5 77q-110 0 -176.5 -75.5t-66.5 -198.5t66.5 -197.5t176.5 -74.5zM338 696
l58 147h86l-86 -147h-58z" />
    <glyph glyph-name="Ocircumflex" unicode="&#xd4;" horiz-adv-x="750" 
d="M375 -10q-140 0 -230.5 92.5t-90.5 243.5q0 149 90.5 243.5t230.5 94.5t230.5 -95t90.5 -243q0 -151 -91.5 -243.5t-229.5 -92.5zM375 54q110 0 176.5 74.5t66.5 197.5q0 120 -64.5 197t-178.5 77q-110 0 -176.5 -75.5t-66.5 -198.5t66.5 -197.5t176.5 -74.5zM244 696
l98 147h69l99 -147h-64l-69 100l-70 -100h-63z" />
    <glyph glyph-name="Otilde" unicode="&#xd5;" horiz-adv-x="750" 
d="M375 -10q-140 0 -230.5 92.5t-90.5 243.5q0 149 90.5 243.5t230.5 94.5t230.5 -95t90.5 -243q0 -151 -91.5 -243.5t-229.5 -92.5zM375 54q110 0 176.5 74.5t66.5 197.5q0 120 -64.5 197t-178.5 77q-110 0 -176.5 -75.5t-66.5 -198.5t66.5 -197.5t176.5 -74.5zM238 726v23
q0 35 20 55.5t51 20.5q29 0 71 -24t57 -24q26 0 26 42h53v-22q0 -35 -20 -56t-51 -21q-29 0 -71 24t-57 24q-26 0 -26 -42h-53z" />
    <glyph glyph-name="Odieresis" unicode="&#xd6;" horiz-adv-x="750" 
d="M375 -10q-140 0 -230.5 92.5t-90.5 243.5q0 149 90.5 243.5t230.5 94.5t230.5 -95t90.5 -243q0 -151 -91.5 -243.5t-229.5 -92.5zM375 54q110 0 176.5 74.5t66.5 197.5q0 120 -64.5 197t-178.5 77q-110 0 -176.5 -75.5t-66.5 -198.5t66.5 -197.5t176.5 -74.5zM289 706
q-18 0 -30.5 12.5t-12.5 31.5q0 18 12.5 30.5t30.5 12.5t31 -12.5t13 -30.5q0 -19 -13 -31.5t-31 -12.5zM467 706q-18 0 -31 12.5t-13 31.5q0 18 13 30.5t31 12.5t30.5 -12.5t12.5 -30.5q0 -19 -12.5 -31.5t-30.5 -12.5z" />
    <glyph glyph-name="multiply" unicode="&#xd7;" horiz-adv-x="537" 
d="M84 21l-47 47l184 185l-184 183l47 47l184 -183l184 183l46 -46l-183 -184l183 -184l-46 -47l-184 184z" />
    <glyph glyph-name="Oslash" unicode="&#xd8;" horiz-adv-x="752" 
d="M110 -15l-48 39l68 76q-75 91 -75 226q0 149 90.5 243.5t230.5 94.5q111 0 196 -67l68 78l49 -39l-72 -80q80 -93 80 -230q0 -151 -91.5 -243.5t-229.5 -92.5q-116 0 -201 69zM570 501l-351 -391q64 -56 157 -56q110 0 177 75t67 197q0 104 -50 175zM178 156l351 391
q-64 54 -153 54q-110 0 -177 -76t-67 -199q0 -101 46 -170z" />
    <glyph glyph-name="Ugrave" unicode="&#xd9;" horiz-adv-x="652" 
d="M326 -10q-181 0 -230 140q-15 47 -15 106v423h74v-416q0 -54 13 -92q36 -98 158 -98t158 98q13 34 13 95v413h74v-423q0 -64 -17 -108q-49 -138 -228 -138zM310 696l-86 147h87l58 -147h-59z" />
    <glyph glyph-name="Uacute" unicode="&#xda;" horiz-adv-x="652" 
d="M326 -10q-181 0 -230 140q-15 47 -15 106v423h74v-416q0 -54 13 -92q36 -98 158 -98t158 98q13 34 13 95v413h74v-423q0 -64 -17 -108q-49 -138 -228 -138zM292 696l58 147h86l-86 -147h-58z" />
    <glyph glyph-name="Ucircumflex" unicode="&#xdb;" horiz-adv-x="652" 
d="M326 -10q-181 0 -230 140q-15 47 -15 106v423h74v-416q0 -54 13 -92q36 -98 158 -98t158 98q13 34 13 95v413h74v-423q0 -64 -17 -108q-49 -138 -228 -138zM197 696l98 147h69l99 -147h-64l-69 100l-70 -100h-63z" />
    <glyph glyph-name="Udieresis" unicode="&#xdc;" horiz-adv-x="652" 
d="M326 -10q-181 0 -230 140q-15 47 -15 106v423h74v-416q0 -54 13 -92q36 -98 158 -98t158 98q13 34 13 95v413h74v-423q0 -64 -17 -108q-49 -138 -228 -138zM241 706q-18 0 -30.5 12.5t-12.5 31.5q0 18 12.5 30.5t30.5 12.5t31 -12.5t13 -30.5q0 -19 -13 -31.5t-31 -12.5z
M419 706q-18 0 -31 12.5t-13 31.5q0 18 13 30.5t31 12.5t30.5 -12.5t12.5 -30.5q0 -19 -12.5 -31.5t-30.5 -12.5z" />
    <glyph glyph-name="Yacute" unicode="&#xdd;" horiz-adv-x="536" 
d="M233 0v263l-217 396h82l172 -323h2l168 323h80l-214 -397v-262h-73zM228 696l58 147h86l-86 -147h-58z" />
    <glyph glyph-name="Thorn" unicode="&#xde;" horiz-adv-x="502" 
d="M86 0v659h74v-113h50q88 0 143 -30q95 -54 95 -179q0 -60 -27.5 -108t-82.5 -74q-52 -25 -135 -25h-43v-130h-74zM160 192h49q60 0 96 19q67 35 67 126q0 88 -63 125q-36 22 -99 22h-50v-292z" />
    <glyph glyph-name="germandbls" unicode="&#xdf;" horiz-adv-x="568" 
d="M65 -141v633q0 62 19 106.5t50.5 67t64 32.5t67.5 10q83 0 139 -51t56 -157v-23q-53 -11 -78 -29.5t-25 -49.5q0 -24 17 -45.5t39.5 -36t50 -38.5t42.5 -49q25 -42 25 -90q0 -74 -50 -111.5t-125 -37.5t-137 39l24 57q54 -34 111 -34q103 0 103 85q0 40 -25 68.5t-65 57
t-57 51.5q-26 32 -26 75q0 92 104 125q-2 63 -33.5 97.5t-90.5 34.5q-55 0 -90.5 -36t-35.5 -114v-637h-74z" />
    <glyph glyph-name="agrave" unicode="&#xe0;" horiz-adv-x="461" 
d="M344 0l-14 53q-67 -63 -142 -63q-66 0 -108 39.5t-42 106.5q0 91 80 128q39 20 118 23l90 3v30q0 52 -28 78t-74 26q-66 0 -130 -39l-28 52q75 48 166 48q77 0 122.5 -40t45.5 -121v-163q0 -125 9 -161h-65zM326 234l-83 -3q-57 -1 -89 -18q-41 -23 -41 -73
q0 -39 24 -63.5t64 -24.5q66 0 125 62v120zM214 531l-86 147h87l58 -147h-59z" />
    <glyph glyph-name="aacute" unicode="&#xe1;" horiz-adv-x="461" 
d="M344 0l-14 53q-67 -63 -142 -63q-66 0 -108 39.5t-42 106.5q0 91 80 128q39 20 118 23l90 3v30q0 52 -28 78t-74 26q-66 0 -130 -39l-28 52q75 48 166 48q77 0 122.5 -40t45.5 -121v-163q0 -125 9 -161h-65zM326 234l-83 -3q-57 -1 -89 -18q-41 -23 -41 -73
q0 -39 24 -63.5t64 -24.5q66 0 125 62v120zM186 531l58 147h86l-86 -147h-58z" />
    <glyph glyph-name="acircumflex" unicode="&#xe2;" horiz-adv-x="461" 
d="M344 0l-14 53q-67 -63 -142 -63q-66 0 -108 39.5t-42 106.5q0 91 80 128q39 20 118 23l90 3v30q0 52 -28 78t-74 26q-66 0 -130 -39l-28 52q75 48 166 48q77 0 122.5 -40t45.5 -121v-163q0 -125 9 -161h-65zM326 234l-83 -3q-57 -1 -89 -18q-41 -23 -41 -73
q0 -39 24 -63.5t64 -24.5q66 0 125 62v120zM96 531l98 147h69l99 -147h-64l-69 100l-70 -100h-63z" />
    <glyph glyph-name="atilde" unicode="&#xe3;" horiz-adv-x="462" 
d="M344 0l-14 53q-67 -63 -142 -63q-66 0 -108 39.5t-42 106.5q0 91 80 128q39 20 118 23l90 3v30q0 52 -28 78t-74 26q-66 0 -130 -39l-28 52q75 48 166 48q77 0 122.5 -40t45.5 -121v-163q0 -125 9 -161h-65zM326 234l-83 -3q-57 -1 -89 -18q-41 -23 -41 -73
q0 -39 24 -63.5t64 -24.5q66 0 125 62v120zM90 554v22q0 35 20 56t51 21q29 0 71 -24t57 -24q26 0 26 42h53v-22q0 -35 -20 -56t-51 -21q-29 0 -71 24t-57 24q-26 0 -26 -42h-53z" />
    <glyph glyph-name="adieresis" unicode="&#xe4;" horiz-adv-x="461" 
d="M344 0l-14 53q-67 -63 -142 -63q-66 0 -108 39.5t-42 106.5q0 91 80 128q39 20 118 23l90 3v30q0 52 -28 78t-74 26q-66 0 -130 -39l-28 52q75 48 166 48q77 0 122.5 -40t45.5 -121v-163q0 -125 9 -161h-65zM326 234l-83 -3q-57 -1 -89 -18q-41 -23 -41 -73
q0 -39 24 -63.5t64 -24.5q66 0 125 62v120zM140 561q-18 0 -30.5 12.5t-12.5 30.5q0 19 12.5 31.5t30.5 12.5t31 -12.5t13 -31.5q0 -18 -13 -30.5t-31 -12.5zM318 561q-18 0 -31 12.5t-13 30.5q0 19 13 31.5t31 12.5t30.5 -12.5t12.5 -31.5q0 -18 -12.5 -30.5t-30.5 -12.5z
" />
    <glyph glyph-name="aring" unicode="&#xe5;" horiz-adv-x="461" 
d="M344 0l-14 53q-67 -63 -142 -63q-66 0 -108 39.5t-42 106.5q0 91 80 128q39 20 118 23l90 3v30q0 52 -28 78t-74 26q-66 0 -130 -39l-28 52q75 48 166 48q77 0 122.5 -40t45.5 -121v-163q0 -125 9 -161h-65zM326 234l-83 -3q-57 -1 -89 -18q-41 -23 -41 -73
q0 -39 24 -63.5t64 -24.5q66 0 125 62v120zM229 524q-46 0 -74.5 26t-28.5 69q0 42 29 68.5t74 26.5t74 -26.5t29 -68.5q0 -43 -28.5 -69t-74.5 -26zM229 564q23 0 36 15t13 40t-13.5 39.5t-35.5 14.5t-35.5 -14.5t-13.5 -39.5t13 -40t36 -15z" />
    <glyph glyph-name="ae" unicode="&#xe6;" horiz-adv-x="749" 
d="M191 -10q-66 0 -109.5 39.5t-43.5 106.5q0 73 52.5 109.5t142.5 36.5h96v38q0 52 -28.5 78t-75.5 26q-65 0 -131 -40l-28 53q75 48 165 48q108 0 144 -81h2q50 81 145 81q87 0 136.5 -65t49.5 -178v-17h-307q2 -76 43.5 -124.5t113.5 -48.5q58 0 117 32l23 -52
q-64 -42 -150 -42q-119 0 -179 93q-73 -93 -178 -93zM201 52q42 0 80 24.5t62 58.5q-14 42 -14 90h-89q-127 0 -127 -87q0 -39 24 -62.5t64 -23.5zM402 282h229q-2 59 -30.5 101t-80.5 42t-84 -41t-34 -102z" />
    <glyph glyph-name="ccedilla" unicode="&#xe7;" horiz-adv-x="425" 
d="M150 -200l13 43q23 -10 50 -10q53 0 53 39q0 13 -7 21t-19 11t-24 4.5t-27 1.5h-8l26 86q-80 18 -123.5 82.5t-43.5 153.5q0 107 64.5 180t170.5 73q65 0 118 -29v-65q-52 32 -114 32q-74 0 -118.5 -52t-44.5 -134q0 -87 42 -135.5t115 -48.5q56 0 114 32l23 -52
q-64 -43 -141 -43h-4l-14 -44q81 -6 81 -72q0 -40 -31.5 -63t-84.5 -23q-38 0 -66 12z" />
    <glyph glyph-name="egrave" unicode="&#xe8;" horiz-adv-x="463" 
d="M262 -10q-107 0 -164.5 71.5t-57.5 180.5q0 108 54 175.5t140 67.5q89 0 138.5 -65t49.5 -178v-18h-307q2 -76 43.5 -124t114.5 -48q59 0 116 32l24 -52q-64 -42 -151 -42zM116 281h229q-1 59 -29.5 101.5t-81.5 42.5t-85 -41.5t-33 -102.5zM222 531l-86 147h87l58 -147
h-59z" />
    <glyph glyph-name="eacute" unicode="&#xe9;" horiz-adv-x="463" 
d="M262 -10q-107 0 -164.5 71.5t-57.5 180.5q0 108 54 175.5t140 67.5q89 0 138.5 -65t49.5 -178v-18h-307q2 -76 43.5 -124t114.5 -48q59 0 116 32l24 -52q-64 -42 -151 -42zM116 281h229q-1 59 -29.5 101.5t-81.5 42.5t-85 -41.5t-33 -102.5zM194 531l58 147h86l-86 -147
h-58z" />
    <glyph glyph-name="ecircumflex" unicode="&#xea;" horiz-adv-x="463" 
d="M262 -10q-107 0 -164.5 71.5t-57.5 180.5q0 108 54 175.5t140 67.5q89 0 138.5 -65t49.5 -178v-18h-307q2 -76 43.5 -124t114.5 -48q59 0 116 32l24 -52q-64 -42 -151 -42zM116 281h229q-1 59 -29.5 101.5t-81.5 42.5t-85 -41.5t-33 -102.5zM104 531l98 147h69l99 -147
h-64l-69 100l-70 -100h-63z" />
    <glyph glyph-name="edieresis" unicode="&#xeb;" horiz-adv-x="463" 
d="M262 -10q-107 0 -164.5 71.5t-57.5 180.5q0 108 54 175.5t140 67.5q89 0 138.5 -65t49.5 -178v-18h-307q2 -76 43.5 -124t114.5 -48q59 0 116 32l24 -52q-64 -42 -151 -42zM116 281h229q-1 59 -29.5 101.5t-81.5 42.5t-85 -41.5t-33 -102.5zM148 561q-18 0 -30.5 12.5
t-12.5 30.5q0 19 12.5 31.5t30.5 12.5t31 -12.5t13 -31.5q0 -18 -13 -30.5t-31 -12.5zM326 561q-18 0 -31 12.5t-13 30.5q0 19 13 31.5t31 12.5t30.5 -12.5t12.5 -31.5q0 -18 -12.5 -30.5t-30.5 -12.5z" />
    <glyph glyph-name="igrave" unicode="&#xec;" horiz-adv-x="225" 
d="M76 0v473h73v-473h-73zM99 531l-86 147h87l58 -147h-59z" />
    <glyph glyph-name="iacute" unicode="&#xed;" horiz-adv-x="225" 
d="M76 0v473h73v-473h-73zM71 531l58 147h86l-86 -147h-58z" />
    <glyph glyph-name="icircumflex" unicode="&#xee;" horiz-adv-x="225" 
d="M76 0v473h73v-473h-73zM-19 531l98 147h69l99 -147h-64l-69 100l-70 -100h-63z" />
    <glyph glyph-name="idieresis" unicode="&#xef;" horiz-adv-x="225" 
d="M76 0v473h73v-473h-73zM25 561q-18 0 -30.5 12.5t-12.5 30.5q0 19 12.5 31.5t30.5 12.5t31 -12.5t13 -31.5q0 -18 -13 -30.5t-31 -12.5zM203 561q-18 0 -31 12.5t-13 30.5q0 19 13 31.5t31 12.5t30.5 -12.5t12.5 -31.5q0 -18 -12.5 -30.5t-30.5 -12.5z" />
    <glyph glyph-name="eth" unicode="&#xf0;" horiz-adv-x="535" 
d="M438 665l-94 -44q133 -104 133 -332q0 -148 -60.5 -223.5t-159.5 -75.5q-97 0 -157 70t-60 175q0 108 57.5 178t153.5 70q49 0 91.5 -24t65.5 -63h2q-10 55 -42 108t-84 88l-131 -61l-21 43l97 44q-48 24 -125 29l13 61q109 -10 184 -55l116 55zM258 52q66 0 104 51
t38 137q0 80 -39 130.5t-103 50.5q-65 0 -103.5 -51.5t-38.5 -133.5t39 -133t103 -51z" />
    <glyph glyph-name="ntilde" unicode="&#xf1;" horiz-adv-x="506" 
d="M65 0v473h62l9 -61q86 73 166 73q61 0 100.5 -41t39.5 -125v-319h-73v294q0 125 -85 125q-65 0 -145 -71v-348h-74zM105 554v22q0 35 20 56t51 21q30 0 72 -24t56 -24q26 0 26 42h53v-22q0 -35 -20 -56t-51 -21q-29 0 -71 24t-57 24q-26 0 -26 -42h-53z" />
    <glyph glyph-name="ograve" unicode="&#xf2;" horiz-adv-x="516" 
d="M258 -10q-97 0 -157.5 70.5t-60.5 176.5q0 107 60 177.5t159 70.5q97 0 157.5 -71t60.5 -177t-60.5 -176.5t-158.5 -70.5zM258 53q65 0 103.5 51t38.5 133t-38.5 133.5t-102.5 51.5q-65 0 -104 -51t-39 -134q0 -82 38.5 -133t103.5 -51zM239 531l-86 147h87l58 -147h-59z
" />
    <glyph glyph-name="oacute" unicode="&#xf3;" horiz-adv-x="516" 
d="M258 -10q-97 0 -157.5 70.5t-60.5 176.5q0 107 60 177.5t159 70.5q97 0 157.5 -71t60.5 -177t-60.5 -176.5t-158.5 -70.5zM258 53q65 0 103.5 51t38.5 133t-38.5 133.5t-102.5 51.5q-65 0 -104 -51t-39 -134q0 -82 38.5 -133t103.5 -51zM225 531l58 147h86l-86 -147h-58z
" />
    <glyph glyph-name="ocircumflex" unicode="&#xf4;" horiz-adv-x="516" 
d="M258 -10q-97 0 -157.5 70.5t-60.5 176.5q0 107 60 177.5t159 70.5q97 0 157.5 -71t60.5 -177t-60.5 -176.5t-158.5 -70.5zM258 53q65 0 103.5 51t38.5 133t-38.5 133.5t-102.5 51.5q-65 0 -104 -51t-39 -134q0 -82 38.5 -133t103.5 -51zM125 531l98 147h69l99 -147h-64
l-69 100l-70 -100h-63z" />
    <glyph glyph-name="otilde" unicode="&#xf5;" horiz-adv-x="516" 
d="M258 -10q-97 0 -157.5 70.5t-60.5 176.5q0 107 60 177.5t159 70.5q97 0 157.5 -71t60.5 -177t-60.5 -176.5t-158.5 -70.5zM258 53q65 0 103.5 51t38.5 133t-38.5 133.5t-102.5 51.5q-65 0 -104 -51t-39 -134q0 -82 38.5 -133t103.5 -51zM119 554v22q0 35 20 56t51 21
q30 0 72 -24t56 -24q26 0 26 42h53v-22q0 -35 -20 -56t-51 -21q-29 0 -71 24t-57 24q-26 0 -26 -42h-53z" />
    <glyph glyph-name="odieresis" unicode="&#xf6;" horiz-adv-x="516" 
d="M258 -10q-97 0 -157.5 70.5t-60.5 176.5q0 107 60 177.5t159 70.5q97 0 157.5 -71t60.5 -177t-60.5 -176.5t-158.5 -70.5zM258 53q65 0 103.5 51t38.5 133t-38.5 133.5t-102.5 51.5q-65 0 -104 -51t-39 -134q0 -82 38.5 -133t103.5 -51zM169 561q-18 0 -30.5 12.5
t-12.5 30.5q0 19 12.5 31.5t30.5 12.5t31 -12.5t13 -31.5q0 -18 -13 -30.5t-31 -12.5zM347 561q-18 0 -31 12.5t-13 30.5q0 19 13 31.5t31 12.5t30.5 -12.5t12.5 -31.5q0 -18 -12.5 -30.5t-30.5 -12.5z" />
    <glyph glyph-name="divide" unicode="&#xf7;" 
d="M262 375q-19 0 -32.5 14t-13.5 34t13.5 33.5t32.5 13.5t32.5 -14t13.5 -33q0 -20 -13.5 -34t-32.5 -14zM25 222v63h473v-63h-473zM262 35q-19 0 -32.5 14t-13.5 34t13.5 33.5t32.5 13.5t32.5 -14t13.5 -33q0 -20 -13.5 -34t-32.5 -14z" />
    <glyph glyph-name="oslash" unicode="&#xf8;" horiz-adv-x="516" 
d="M85 -20l-39 33l48 57q-54 70 -54 167q0 107 60 177.5t159 70.5q73 0 130 -47l41 52l40 -32l-46 -55q53 -71 53 -166q0 -106 -60.5 -176.5t-158.5 -70.5q-74 0 -129 45zM170 86q36 -34 88 -34q65 0 104 51.5t39 133.5q0 61 -22 108zM139 128l209 259q-37 37 -89 37
q-65 0 -104.5 -52t-39.5 -135q0 -65 24 -109z" />
    <glyph glyph-name="ugrave" unicode="&#xf9;" horiz-adv-x="505" 
d="M204 -10q-40 0 -75.5 20.5t-51.5 67.5q-12 39 -12 86v309h74v-291q0 -51 8 -74q17 -53 78 -53q39 0 76 20t57 47v351h73v-313q0 -120 10 -160h-66l-14 55q-74 -65 -157 -65zM231 531l-86 147h87l58 -147h-59z" />
    <glyph glyph-name="uacute" unicode="&#xfa;" horiz-adv-x="505" 
d="M204 -10q-40 0 -75.5 20.5t-51.5 67.5q-12 39 -12 86v309h74v-291q0 -51 8 -74q17 -53 78 -53q39 0 76 20t57 47v351h73v-313q0 -120 10 -160h-66l-14 55q-74 -65 -157 -65zM212 531l58 147h86l-86 -147h-58z" />
    <glyph glyph-name="ucircumflex" unicode="&#xfb;" horiz-adv-x="505" 
d="M204 -10q-40 0 -75.5 20.5t-51.5 67.5q-12 39 -12 86v309h74v-291q0 -51 8 -74q17 -53 78 -53q39 0 76 20t57 47v351h73v-313q0 -120 10 -160h-66l-14 55q-74 -65 -157 -65zM119 531l98 147h69l99 -147h-64l-69 100l-70 -100h-63z" />
    <glyph glyph-name="udieresis" unicode="&#xfc;" horiz-adv-x="505" 
d="M204 -10q-40 0 -75.5 20.5t-51.5 67.5q-12 39 -12 86v309h74v-291q0 -51 8 -74q17 -53 78 -53q39 0 76 20t57 47v351h73v-313q0 -120 10 -160h-66l-14 55q-74 -65 -157 -65zM163 561q-18 0 -30.5 12.5t-12.5 30.5q0 19 12.5 31.5t30.5 12.5t31 -12.5t13 -31.5
q0 -18 -13 -30.5t-31 -12.5zM341 561q-18 0 -31 12.5t-13 30.5q0 19 13 31.5t31 12.5t30.5 -12.5t12.5 -31.5q0 -18 -12.5 -30.5t-30.5 -12.5z" />
    <glyph glyph-name="yacute" unicode="&#xfd;" horiz-adv-x="466" 
d="M-15 -221l18 60q29 -13 65 -13q100 0 150 171l-208 476h79l162 -383h2l127 383h76l-177 -510q-42 -119 -92 -159.5t-118 -40.5q-46 0 -84 16zM196 531l58 147h86l-86 -147h-58z" />
    <glyph glyph-name="thorn" unicode="&#xfe;" horiz-adv-x="505" 
d="M69 -237v945h73v-234q42 11 87 11q111 0 173.5 -64.5t62.5 -179.5q0 -114 -67 -182.5t-172 -68.5q-43 0 -84 17v-244h-73zM142 73q40 -20 82 -20q79 0 122 51t43 137q0 90 -46 135.5t-120 45.5q-43 0 -81 -13v-336z" />
    <glyph glyph-name="ydieresis" unicode="&#xff;" horiz-adv-x="466" 
d="M-15 -221l18 60q29 -13 65 -13q100 0 150 171l-208 476h79l162 -383h2l127 383h76l-177 -510q-42 -119 -92 -159.5t-118 -40.5q-46 0 -84 16zM150 561q-18 0 -30.5 12.5t-12.5 30.5q0 19 12.5 31.5t30.5 12.5t31 -12.5t13 -31.5q0 -18 -13 -30.5t-31 -12.5zM328 561
q-18 0 -31 12.5t-13 30.5q0 19 13 31.5t31 12.5t30.5 -12.5t12.5 -31.5q0 -18 -12.5 -30.5t-30.5 -12.5z" />
    <glyph glyph-name="Amacron" unicode="&#x100;" horiz-adv-x="586" 
d="M17 0l250 661h50l252 -661h-79l-66 177h-264l-65 -177h-78zM183 239h218l-69 190q-35 101 -39 114h-2q-4 -16 -40 -114zM168 717v59h248v-59h-248z" />
    <glyph glyph-name="amacron" unicode="&#x101;" horiz-adv-x="461" 
d="M344 0l-14 53q-67 -63 -142 -63q-66 0 -108 39.5t-42 106.5q0 91 80 128q39 20 118 23l90 3v30q0 52 -28 78t-74 26q-66 0 -130 -39l-28 52q75 48 166 48q77 0 122.5 -40t45.5 -121v-163q0 -125 9 -161h-65zM326 234l-83 -3q-57 -1 -89 -18q-41 -23 -41 -73
q0 -39 24 -63.5t64 -24.5q66 0 125 62v120zM105 574v59h248v-59h-248z" />
    <glyph glyph-name="Abreve" unicode="&#x102;" horiz-adv-x="586" 
d="M17 0l250 661h50l252 -661h-79l-66 177h-264l-65 -177h-78zM183 239h218l-69 190q-35 101 -39 114h-2q-4 -16 -40 -114zM364 825h53q-4 -56 -37.5 -89t-88.5 -33t-87.5 33t-36.5 89h53q12 -69 72 -69q62 0 72 69z" />
    <glyph glyph-name="abreve" unicode="&#x103;" horiz-adv-x="461" 
d="M344 0l-14 53q-67 -63 -142 -63q-66 0 -108 39.5t-42 106.5q0 91 80 128q39 20 118 23l90 3v30q0 52 -28 78t-74 26q-66 0 -130 -39l-28 52q75 48 166 48q77 0 122.5 -40t45.5 -121v-163q0 -125 9 -161h-65zM326 234l-83 -3q-57 -1 -89 -18q-41 -23 -41 -73
q0 -39 24 -63.5t64 -24.5q66 0 125 62v120zM301 666h53q-4 -56 -37.5 -89t-88.5 -33t-87.5 33t-36.5 89h53q12 -69 72 -69q62 0 72 69z" />
    <glyph glyph-name="Aogonek" unicode="&#x104;" horiz-adv-x="586" 
d="M317 661l252 -661q-52 -22 -84 -54.5t-32 -66.5q0 -41 39 -41q12 0 38 7l10 -47q-35 -11 -61 -11q-43 0 -66.5 23t-23.5 57q0 33 18.5 63t35.5 44.5t44 32.5l-63 170h-264l-65 -177h-78l250 661h50zM183 239h218l-69 190q-35 101 -39 114h-2q-4 -16 -40 -114z" />
    <glyph glyph-name="aogonek" unicode="&#x105;" horiz-adv-x="461" 
d="M409 -3q-104 -51 -104 -118q0 -41 38 -41q12 0 38 7l10 -47q-35 -11 -61 -11q-42 0 -66 23t-24 57q0 26 9.5 49t28.5 41.5t31.5 28.5t31.5 23l-11 44q-67 -63 -142 -63q-66 0 -108 39.5t-42 106.5q0 91 80 128q39 20 118 23l90 3v30q0 52 -28 78t-74 26q-66 0 -130 -39
l-28 52q75 48 166 48q77 0 122.5 -40t45.5 -121v-164q0 -128 9 -163zM201 52q66 0 125 62v120l-83 -3q-57 -1 -89 -18q-41 -23 -41 -73q0 -39 24 -63.5t64 -24.5z" />
    <glyph glyph-name="Cacute" unicode="&#x106;" horiz-adv-x="590" 
d="M532 95l20 -59q-86 -46 -184 -46q-145 0 -229.5 92t-84.5 239q0 146 91.5 244.5t235.5 98.5q102 0 163 -35v-70q-75 41 -162 41q-113 0 -181.5 -77t-68.5 -196q0 -122 66 -197.5t177 -75.5q80 0 157 41zM301 696l58 147h86l-86 -147h-58z" />
    <glyph glyph-name="cacute" unicode="&#x107;" horiz-adv-x="425" 
d="M264 -10q-105 0 -164.5 69t-59.5 173q0 107 64.5 180t170.5 73q65 0 118 -29v-65q-52 32 -114 32q-74 0 -118.5 -52t-44.5 -134q0 -87 42 -135.5t115 -48.5q56 0 114 32l23 -52q-64 -43 -146 -43zM205 531l58 147h86l-86 -147h-58z" />
    <glyph glyph-name="Ccircumflex" unicode="&#x108;" horiz-adv-x="590" 
d="M532 95l20 -59q-86 -46 -184 -46q-145 0 -229.5 92t-84.5 239q0 146 91.5 244.5t235.5 98.5q102 0 163 -35v-70q-75 41 -162 41q-113 0 -181.5 -77t-68.5 -196q0 -122 66 -197.5t177 -75.5q80 0 157 41zM215 696l98 147h69l99 -147h-64l-69 100l-70 -100h-63z" />
    <glyph glyph-name="ccircumflex" unicode="&#x109;" horiz-adv-x="425" 
d="M264 -10q-105 0 -164.5 69t-59.5 173q0 107 64.5 180t170.5 73q65 0 118 -29v-65q-52 32 -114 32q-74 0 -118.5 -52t-44.5 -134q0 -87 42 -135.5t115 -48.5q56 0 114 32l23 -52q-64 -43 -146 -43zM115 531l98 147h69l99 -147h-64l-69 100l-70 -100h-63z" />
    <glyph glyph-name="Cdotaccent" unicode="&#x10a;" horiz-adv-x="590" 
d="M532 95l20 -59q-86 -46 -184 -46q-145 0 -229.5 92t-84.5 239q0 146 91.5 244.5t235.5 98.5q102 0 163 -35v-70q-75 41 -162 41q-113 0 -181.5 -77t-68.5 -196q0 -122 66 -197.5t177 -75.5q80 0 157 41zM347 706q-21 0 -34.5 14t-13.5 35t13.5 35.5t34.5 14.5
q22 0 36 -14t14 -36q0 -21 -14 -35t-36 -14z" />
    <glyph glyph-name="cdotaccent" unicode="&#x10b;" horiz-adv-x="425" 
d="M264 -10q-105 0 -164.5 69t-59.5 173q0 107 64.5 180t170.5 73q65 0 118 -29v-65q-52 32 -114 32q-74 0 -118.5 -52t-44.5 -134q0 -87 42 -135.5t115 -48.5q56 0 114 32l23 -52q-64 -43 -146 -43zM247 580q-21 0 -34.5 14t-13.5 35t13.5 35.5t34.5 14.5q22 0 36 -14
t14 -36q0 -21 -14 -35t-36 -14z" />
    <glyph glyph-name="Ccaron" unicode="&#x10c;" horiz-adv-x="590" 
d="M532 95l20 -59q-86 -46 -184 -46q-145 0 -229.5 92t-84.5 239q0 146 91.5 244.5t235.5 98.5q102 0 163 -35v-70q-75 41 -162 41q-113 0 -181.5 -77t-68.5 -196q0 -122 66 -197.5t177 -75.5q80 0 157 41zM313 696l-98 147h64l70 -100l69 100h63l-99 -147h-69z" />
    <glyph glyph-name="ccaron" unicode="&#x10d;" horiz-adv-x="425" 
d="M264 -10q-105 0 -164.5 69t-59.5 173q0 107 64.5 180t170.5 73q65 0 118 -29v-65q-52 32 -114 32q-74 0 -118.5 -52t-44.5 -134q0 -87 42 -135.5t115 -48.5q56 0 114 32l23 -52q-64 -43 -146 -43zM213 532l-98 147h64l70 -100l69 100h63l-99 -147h-69z" />
    <glyph glyph-name="Dcaron" unicode="&#x10e;" horiz-adv-x="647" 
d="M86 0v659h158q171 0 260 -89.5t89 -236.5q0 -149 -90 -241t-262 -92h-155zM160 62h80q144 0 209.5 76t65.5 198q0 119 -69.5 190t-207.5 71h-78v-535zM251 696l-98 147h64l70 -100l69 100h63l-99 -147h-69z" />
    <glyph glyph-name="dcaron" unicode="&#x10f;" horiz-adv-x="509" 
d="M287 -10q-107 0 -177 63t-70 178q0 113 70.5 183.5t173.5 70.5q43 0 80 -10v233h73v-686q-59 -32 -150 -32zM290 53q42 0 74 13v344q-36 12 -75 12q-74 0 -123.5 -50.5t-49.5 -138.5q0 -83 46.5 -131.5t127.5 -48.5zM507 515l-30 48q44 23 44 71q0 36 -23 74h67
q24 -31 24 -74q0 -80 -82 -119z" />
    <glyph glyph-name="Dcroat" unicode="&#x110;" horiz-adv-x="647" 
d="M86 0v302h-77v62h77v295h158q171 0 260 -89.5t89 -236.5q0 -149 -90 -241t-262 -92h-155zM160 62h80q144 0 209.5 76t65.5 198q0 119 -69.5 190t-207.5 71h-78v-233h164v-62h-164v-240z" />
    <glyph glyph-name="dcroat" unicode="&#x111;" horiz-adv-x="509" 
d="M283 -10q-104 0 -173.5 63t-69.5 178q0 113 70.5 183.5t174.5 70.5q40 0 79 -10v90h-133v59h133v84h73v-84h62v-59h-62v-542q-61 -33 -154 -33zM290 54q44 0 74 12v345q-36 12 -75 12q-74 0 -124 -50.5t-50 -138.5q0 -82 46.5 -131t128.5 -49z" />
    <glyph glyph-name="Emacron" unicode="&#x112;" horiz-adv-x="468" 
d="M86 0v659h318l-23 -62h-221v-229h217v-61h-217v-245h250v-62h-324zM117 717v59h248v-59h-248z" />
    <glyph glyph-name="emacron" unicode="&#x113;" horiz-adv-x="463" 
d="M262 -10q-107 0 -164.5 71.5t-57.5 180.5q0 108 54 175.5t140 67.5q89 0 138.5 -65t49.5 -178v-18h-307q2 -76 43.5 -124t114.5 -48q59 0 116 32l24 -52q-64 -42 -151 -42zM116 281h229q-1 59 -29.5 101.5t-81.5 42.5t-85 -41.5t-33 -102.5zM112 574v59h248v-59h-248z
" />
    <glyph glyph-name="Ebreve" unicode="&#x114;" horiz-adv-x="468" 
d="M86 0v659h318l-23 -62h-221v-229h217v-61h-217v-245h250v-62h-324zM312 825h53q-4 -56 -37.5 -89t-88.5 -33t-87.5 33t-36.5 89h53q12 -69 72 -69q62 0 72 69z" />
    <glyph glyph-name="ebreve" unicode="&#x115;" horiz-adv-x="463" 
d="M262 -10q-107 0 -164.5 71.5t-57.5 180.5q0 108 54 175.5t140 67.5q89 0 138.5 -65t49.5 -178v-18h-307q2 -76 43.5 -124t114.5 -48q59 0 116 32l24 -52q-64 -42 -151 -42zM116 281h229q-1 59 -29.5 101.5t-81.5 42.5t-85 -41.5t-33 -102.5zM309 666h53q-4 -56 -37.5 -89
t-88.5 -33t-87.5 33t-36.5 89h53q12 -69 72 -69q62 0 72 69z" />
    <glyph glyph-name="Edotaccent" unicode="&#x116;" horiz-adv-x="468" 
d="M86 0v659h318l-23 -62h-221v-229h217v-61h-217v-245h250v-62h-324zM239 706q-21 0 -34.5 14t-13.5 35t13.5 35.5t34.5 14.5q22 0 36 -14t14 -36q0 -21 -14 -35t-36 -14z" />
    <glyph glyph-name="edotaccent" unicode="&#x117;" horiz-adv-x="463" 
d="M262 -10q-107 0 -164.5 71.5t-57.5 180.5q0 108 54 175.5t140 67.5q89 0 138.5 -65t49.5 -178v-18h-307q2 -76 43.5 -124t114.5 -48q59 0 116 32l24 -52q-64 -42 -151 -42zM116 281h229q-1 59 -29.5 101.5t-81.5 42.5t-85 -41.5t-33 -102.5zM236 580q-21 0 -34.5 14
t-13.5 35t13.5 35.5t34.5 14.5q22 0 36 -14t14 -36q0 -21 -14 -35t-36 -14z" />
    <glyph glyph-name="Eogonek" unicode="&#x118;" horiz-adv-x="468" 
d="M86 0v659h318l-23 -62h-221v-229h217v-61h-217v-245h250v-62h-16q-48 -23 -78 -55t-30 -66q0 -41 39 -41q12 0 38 7l10 -47q-35 -11 -61 -11q-42 0 -66 23t-24 57q0 75 89 133h-225z" />
    <glyph glyph-name="eogonek" unicode="&#x119;" horiz-adv-x="463" 
d="M206 -133q0 68 76 123v2q-12 -2 -24 -2q-105 1 -161.5 72t-56.5 180q0 108 54 175.5t140 67.5q89 0 138.5 -65t49.5 -178v-18h-307q2 -76 43.5 -124t114.5 -48q59 0 116 32l24 -52q-143 -82 -143 -153q0 -41 39 -41q12 0 38 7l10 -47q-35 -11 -61 -11q-43 0 -66.5 23
t-23.5 57zM116 281h229q-1 59 -29.5 101.5t-81.5 42.5t-85 -41.5t-33 -102.5z" />
    <glyph glyph-name="Ecaron" unicode="&#x11a;" horiz-adv-x="468" 
d="M86 0v659h318l-23 -62h-221v-229h217v-61h-217v-245h250v-62h-324zM207 696l-98 147h64l70 -100l69 100h63l-99 -147h-69z" />
    <glyph glyph-name="ecaron" unicode="&#x11b;" horiz-adv-x="463" 
d="M262 -10q-107 0 -164.5 71.5t-57.5 180.5q0 108 54 175.5t140 67.5q89 0 138.5 -65t49.5 -178v-18h-307q2 -76 43.5 -124t114.5 -48q59 0 116 32l24 -52q-64 -42 -151 -42zM116 281h229q-1 59 -29.5 101.5t-81.5 42.5t-85 -41.5t-33 -102.5zM202 532l-98 147h64l70 -100
l69 100h63l-99 -147h-69z" />
    <glyph glyph-name="Gcircumflex" unicode="&#x11c;" horiz-adv-x="673" 
d="M595 311v-271q-96 -50 -216 -50q-146 0 -235.5 92t-89.5 238q0 152 94 248t246 96q95 0 180 -35v-70q-82 42 -176 42q-125 0 -195.5 -75t-70.5 -198q0 -126 69.5 -200t186.5 -74q80 0 134 27v230h73zM230 696l98 147h69l99 -147h-64l-69 100l-70 -100h-63z" />
    <glyph glyph-name="gcircumflex" unicode="&#x11d;" horiz-adv-x="474" 
d="M227 -237q-95 0 -151 36t-56 100q0 79 88 122q-34 19 -34 59q0 48 50 93q-73 48 -73 143q0 72 49 120t125 48q49 0 89 -18q6 -3 10 1q39 39 97 39q14 0 29 -3l-18 -58q-14 3 -27 3q-26 0 -46 -13q54 -48 54 -122q0 -76 -50.5 -123.5t-132.5 -47.5q-32 0 -62 10
q-25 -28 -25 -54q0 -25 32 -38t78 -18.5t92 -15t78 -38t32 -77.5q0 -67 -61.5 -107.5t-166.5 -40.5zM233 -179q72 0 110 23t38 59q0 30 -25 48t-55 23t-77 12t-71 14q-65 -43 -65 -89q0 -42 40 -66t105 -24zM231 203q47 0 77 29.5t30 81.5q0 47 -30 78t-77 31
q-48 0 -77.5 -29.5t-29.5 -78.5q0 -50 29 -81t78 -31zM98 531l98 147h69l99 -147h-64l-69 100l-70 -100h-63z" />
    <glyph glyph-name="Gbreve" unicode="&#x11e;" horiz-adv-x="673" 
d="M595 311v-271q-96 -50 -216 -50q-146 0 -235.5 92t-89.5 238q0 152 94 248t246 96q95 0 180 -35v-70q-82 42 -176 42q-125 0 -195.5 -75t-70.5 -198q0 -126 69.5 -200t186.5 -74q80 0 134 27v230h73zM432 825h53q-4 -56 -37.5 -89t-88.5 -33t-87.5 33t-36.5 89h53
q12 -69 72 -69q62 0 72 69z" />
    <glyph glyph-name="gbreve" unicode="&#x11f;" horiz-adv-x="474" 
d="M227 -237q-95 0 -151 36t-56 100q0 79 88 122q-34 19 -34 59q0 48 50 93q-73 48 -73 143q0 72 49 120t125 48q49 0 89 -18q6 -3 10 1q39 39 97 39q14 0 29 -3l-18 -58q-14 3 -27 3q-26 0 -46 -13q54 -48 54 -122q0 -76 -50.5 -123.5t-132.5 -47.5q-32 0 -62 10
q-25 -28 -25 -54q0 -25 32 -38t78 -18.5t92 -15t78 -38t32 -77.5q0 -67 -61.5 -107.5t-166.5 -40.5zM233 -179q72 0 110 23t38 59q0 30 -25 48t-55 23t-77 12t-71 14q-65 -43 -65 -89q0 -42 40 -66t105 -24zM231 203q47 0 77 29.5t30 81.5q0 47 -30 78t-77 31
q-48 0 -77.5 -29.5t-29.5 -78.5q0 -50 29 -81t78 -31zM303 666h53q-4 -56 -37.5 -89t-88.5 -33t-87.5 33t-36.5 89h53q12 -69 72 -69q62 0 72 69z" />
    <glyph glyph-name="Gdotaccent" unicode="&#x120;" horiz-adv-x="673" 
d="M595 311v-271q-96 -50 -216 -50q-146 0 -235.5 92t-89.5 238q0 152 94 248t246 96q95 0 180 -35v-70q-82 42 -176 42q-125 0 -195.5 -75t-70.5 -198q0 -126 69.5 -200t186.5 -74q80 0 134 27v230h73zM361 706q-21 0 -34.5 14t-13.5 35t13.5 35.5t34.5 14.5q22 0 36 -14
t14 -36q0 -21 -14 -35t-36 -14z" />
    <glyph glyph-name="gdotaccent" unicode="&#x121;" horiz-adv-x="474" 
d="M227 -237q-95 0 -151 36t-56 100q0 79 88 122q-34 19 -34 59q0 48 50 93q-73 48 -73 143q0 72 49 120t125 48q49 0 89 -18q6 -3 10 1q39 39 97 39q14 0 29 -3l-18 -58q-14 3 -27 3q-26 0 -46 -13q54 -48 54 -122q0 -76 -50.5 -123.5t-132.5 -47.5q-32 0 -62 10
q-25 -28 -25 -54q0 -25 32 -38t78 -18.5t92 -15t78 -38t32 -77.5q0 -67 -61.5 -107.5t-166.5 -40.5zM233 -179q72 0 110 23t38 59q0 30 -25 48t-55 23t-77 12t-71 14q-65 -43 -65 -89q0 -42 40 -66t105 -24zM231 203q47 0 77 29.5t30 81.5q0 47 -30 78t-77 31
q-48 0 -77.5 -29.5t-29.5 -78.5q0 -50 29 -81t78 -31zM230 580q-21 0 -34.5 14t-13.5 35t13.5 35.5t34.5 14.5q22 0 36 -14t14 -36q0 -21 -14 -35t-36 -14z" />
    <glyph glyph-name="Gcommaaccent" unicode="&#x122;" horiz-adv-x="672" 
d="M301 -237l-20 48q71 20 71 71q0 29 -24 66h67q24 -30 24 -73q0 -86 -118 -112zM594 311v-271q-96 -50 -216 -50q-146 0 -235.5 92t-89.5 238q0 152 94 248t246 96q95 0 180 -35v-70q-82 42 -176 42q-125 0 -195.5 -75t-70.5 -198q0 -126 69.5 -200t186.5 -74q80 0 134 27
v230h73z" />
    <glyph glyph-name="gcommaaccent" unicode="&#x123;" horiz-adv-x="474" 
d="M262 531h-66q-24 30 -24 73q0 86 118 112l20 -48q-41 -11 -56.5 -28.5t-15.5 -42.5q0 -29 24 -66zM227 -237q-95 0 -151 36t-56 100q0 79 88 122q-34 19 -34 59q0 48 50 93q-73 48 -73 143q0 72 49 120t125 48q49 0 89 -18q6 -3 10 1q39 39 97 39q14 0 29 -3l-18 -58
q-14 3 -27 3q-26 0 -46 -13q54 -48 54 -122q0 -76 -50.5 -123.5t-132.5 -47.5q-32 0 -62 10q-25 -28 -25 -54q0 -25 32 -38t78 -18.5t92 -15t78 -38t32 -77.5q0 -67 -61.5 -107.5t-166.5 -40.5zM233 -179q72 0 110 23t38 59q0 30 -25 48t-55 23t-77 12t-71 14
q-65 -43 -65 -89q0 -42 40 -66t105 -24zM231 203q47 0 77 29.5t30 81.5q0 47 -30 78t-77 31q-48 0 -77.5 -29.5t-29.5 -78.5q0 -50 29 -81t78 -31z" />
    <glyph glyph-name="Hcircumflex" unicode="&#x124;" horiz-adv-x="682" 
d="M86 0v659h74v-290h362v290h74v-659h-74v306h-362v-306h-74zM211 696l98 147h69l99 -147h-64l-69 100l-70 -100h-63z" />
    <glyph glyph-name="hcircumflex" unicode="&#x125;" horiz-adv-x="510" 
d="M69 0v708h73v-295q86 72 164 72q61 0 100.5 -41t39.5 -125v-319h-73v294q0 125 -85 125q-64 0 -146 -71v-348h-73zM-25 726l98 147h69l99 -147h-64l-69 100l-70 -100h-63z" />
    <glyph glyph-name="Hbar" unicode="&#x126;" horiz-adv-x="682" 
d="M86 0v478h-63v60h63v121h74v-121h362v121h74v-121h63v-60h-63v-478h-74v306h-362v-306h-74zM160 369h362v109h-362v-109z" />
    <glyph glyph-name="hbar" unicode="&#x127;" horiz-adv-x="506" 
d="M65 0v559h-63v60h63v89h74v-89h137v-60h-137v-146q84 72 163 72q61 0 100.5 -41t39.5 -125v-319h-73v294q0 125 -85 125q-65 0 -145 -71v-348h-74z" />
    <glyph glyph-name="Itilde" unicode="&#x128;" horiz-adv-x="246" 
d="M86 0v659h74v-659h-74zM-17 726v23q0 35 20 55.5t51 20.5q30 0 72 -24t56 -24q26 0 26 42h53v-22q0 -35 -20 -56t-51 -21q-29 0 -71 24t-57 24q-26 0 -26 -42h-53z" />
    <glyph glyph-name="itilde" unicode="&#x129;" horiz-adv-x="225" 
d="M76 0v473h73v-473h-73zM-25 554v22q0 35 20 56t51 21q30 0 72 -24t56 -24q26 0 26 42h53v-22q0 -35 -20 -56t-51 -21q-29 0 -71 24t-57 24q-26 0 -26 -42h-53z" />
    <glyph glyph-name="Imacron" unicode="&#x12a;" horiz-adv-x="246" 
d="M86 0v659h74v-659h-74zM-2 717v59h248v-59h-248z" />
    <glyph glyph-name="imacron" unicode="&#x12b;" horiz-adv-x="225" 
d="M76 0v473h73v-473h-73zM-10 574v59h248v-59h-248z" />
    <glyph glyph-name="Ibreve" unicode="&#x12c;" horiz-adv-x="246" 
d="M86 0v659h74v-659h-74zM194 825h53q-4 -56 -37.5 -89t-88.5 -33t-87.5 33t-36.5 89h53q12 -69 72 -69q62 0 72 69z" />
    <glyph glyph-name="ibreve" unicode="&#x12d;" horiz-adv-x="225" 
d="M76 0v473h73v-473h-73zM186 666h53q-4 -56 -37.5 -89t-88.5 -33t-87.5 33t-36.5 89h53q12 -69 72 -69q62 0 72 69z" />
    <glyph glyph-name="Iogonek" unicode="&#x12e;" horiz-adv-x="246" 
d="M86 6v653h74v-659q-35 -22 -56 -53.5t-21 -61.5q0 -47 40 -47q13 0 37 7l10 -47q-35 -11 -61 -11q-44 0 -67.5 24t-23.5 63q0 68 68 132z" />
    <glyph glyph-name="iogonek" unicode="&#x12f;" horiz-adv-x="225" 
d="M8 -126q0 70 68 132v467h73v-473q-35 -22 -55.5 -53.5t-20.5 -61.5q0 -47 40 -47q13 0 37 7l10 -47q-35 -11 -61 -11q-44 0 -67.5 24t-23.5 63zM112 580q-22 0 -35.5 14t-13.5 35t14 35.5t35 14.5q22 0 36 -14t14 -36q0 -21 -14 -35t-36 -14z" />
    <glyph glyph-name="Idotaccent" unicode="&#x130;" horiz-adv-x="246" 
d="M86 0v659h74v-659h-74zM123 706q-21 0 -34.5 14t-13.5 35t13.5 35.5t34.5 14.5q22 0 36 -14t14 -36q0 -21 -14 -35t-36 -14z" />
    <glyph glyph-name="dotlessi" unicode="&#x131;" horiz-adv-x="225" 
d="M76 0v473h73v-473h-73z" />
    <glyph glyph-name="IJ" unicode="&#x132;" horiz-adv-x="533" 
d="M86 0v659h74v-659h-74zM219 -173l13 63q23 -8 51 -8q52 0 71 27.5t19 82.5v667h74v-682q0 -159 -163 -159q-34 0 -65 9z" />
    <glyph glyph-name="ij" unicode="&#x133;" horiz-adv-x="461" 
d="M76 0v473h73v-473h-73zM112 580q-22 0 -35.5 14t-13.5 35t14 35.5t35 14.5q22 0 36 -14t14 -36q0 -21 -14 -35t-36 -14zM170 -223l16 61q22 -10 47 -10q38 0 55.5 24t17.5 77v544h73v-558q0 -76 -38 -114t-99 -38q-41 0 -72 14zM342 580q-21 0 -34.5 14t-13.5 35
t13.5 35.5t34.5 14.5q22 0 36 -14t14 -36q0 -21 -14 -35t-36 -14z" />
    <glyph glyph-name="Jcircumflex" unicode="&#x134;" horiz-adv-x="288" 
d="M-26 -173l13 63q23 -8 51 -8q52 0 71 27.5t19 82.5v667h74v-682q0 -159 -163 -159q-34 0 -65 9zM31 696l98 147h69l99 -147h-64l-69 100l-70 -100h-63z" />
    <glyph glyph-name="jcircumflex" unicode="&#x135;" horiz-adv-x="236" 
d="M-49 -222l16 58q26 -11 48 -11q38 0 55 25.5t17 78.5v544h73v-556q0 -78 -38.5 -116t-95.5 -38q-42 0 -75 15zM-15 531l98 147h69l99 -147h-63l-70 100l-70 -100h-63z" />
    <glyph glyph-name="Kcommaaccent" unicode="&#x136;" horiz-adv-x="537" 
d="M86 0v659h74v-302h2l249 302h89l-274 -326l292 -333h-93l-263 301h-2v-301h-74zM206 -237l-20 48q71 20 71 71q0 29 -24 66h67q24 -30 24 -73q0 -86 -118 -112z" />
    <glyph glyph-name="kcommaaccent" unicode="&#x137;" horiz-adv-x="439" 
d="M69 0v708h73v-409h2l180 174h89l-207 -200l229 -273h-89l-202 243h-2v-243h-73zM163 -237l-20 48q71 20 71 71q0 29 -24 66h67q24 -30 24 -73q0 -86 -118 -112z" />
    <glyph glyph-name="Lacute" unicode="&#x139;" horiz-adv-x="428" 
d="M86 0v659h74v-597h245v-62h-319zM89 696l58 147h86l-86 -147h-58z" />
    <glyph glyph-name="lacute" unicode="&#x13a;" horiz-adv-x="242" 
d="M72 732l50 127h82l-74 -127h-58zM69 86v622h73v-599q0 -28 8.5 -39t28.5 -11q13 0 29 7l16 -58q-30 -14 -66 -14q-44 0 -66.5 24t-22.5 68z" />
    <glyph glyph-name="Lcommaaccent" unicode="&#x13b;" horiz-adv-x="428" 
d="M86 0v659h74v-597h245v-62h-319zM174 -237l-20 48q71 20 71 71q0 29 -24 66h67q24 -30 24 -73q0 -86 -118 -112z" />
    <glyph glyph-name="lcommaaccent" unicode="&#x13c;" horiz-adv-x="242" 
d="M67 86v622h73v-599q0 -28 8.5 -39t28.5 -11q13 0 29 7l16 -58q-30 -14 -66 -14q-44 0 -66.5 24t-22.5 68zM78 -237l-20 48q71 20 71 71q0 29 -24 66h67q24 -30 24 -73q0 -86 -118 -112z" />
    <glyph glyph-name="Lcaron" unicode="&#x13d;" horiz-adv-x="428" 
d="M86 0v659h74v-597h245v-62h-319zM285 515l-30 48q44 23 44 71q0 36 -23 74h67q24 -31 24 -74q0 -80 -82 -119z" />
    <glyph glyph-name="lcaron" unicode="&#x13e;" horiz-adv-x="242" 
d="M69 86v622h73v-599q0 -28 8.5 -39t28.5 -11q13 0 29 7l16 -58q-30 -14 -66 -14q-44 0 -66.5 24t-22.5 68zM215 515l-30 48q44 23 44 71q0 36 -23 74h67q24 -31 24 -74q0 -80 -82 -119z" />
    <glyph glyph-name="Ldot" unicode="&#x13f;" horiz-adv-x="428" 
d="M86 0v659h74v-597h245v-62h-319zM323 295q-19 0 -33 15t-14 35t14 34.5t33 14.5q20 0 34 -14.5t14 -34.5t-14 -35t-34 -15z" />
    <glyph glyph-name="ldot" unicode="&#x140;" horiz-adv-x="270" 
d="M69 86v622h73v-599q0 -28 8.5 -39t28.5 -11q13 0 29 7l16 -58q-30 -14 -66 -14q-44 0 -66.5 24t-22.5 68zM238 204q-19 0 -33 15t-14 35t14 34.5t33 14.5q20 0 34 -14.5t14 -34.5t-14 -35t-34 -15z" />
    <glyph glyph-name="Lslash" unicode="&#x141;" horiz-adv-x="428" 
d="M27 210v70l59 35v344h74v-301l160 95v-69l-160 -95v-227h245v-62h-319v245z" />
    <glyph glyph-name="lslash" unicode="&#x142;" horiz-adv-x="271" 
d="M32 250v70l60 35v353h73v-309l69 41v-71l-69 -41v-217q0 -28 8.5 -39t27.5 -11q15 0 29 6l16 -59q-30 -14 -66 -14q-88 0 -88 92v199z" />
    <glyph glyph-name="Nacute" unicode="&#x143;" horiz-adv-x="718" 
d="M86 0v659h71l306 -400q60 -81 95 -134h2q-2 72 -2 116v418h74v-659h-62l-318 416q-48 62 -93 127h-2q3 -50 3 -113v-430h-74zM319 696l58 147h86l-86 -147h-58z" />
    <glyph glyph-name="nacute" unicode="&#x144;" horiz-adv-x="506" 
d="M65 0v473h62l9 -61q86 73 166 73q61 0 100.5 -41t39.5 -125v-319h-73v294q0 125 -85 125q-65 0 -145 -71v-348h-74zM201 531l58 147h86l-86 -147h-58z" />
    <glyph glyph-name="Ncommaaccent" unicode="&#x145;" horiz-adv-x="718" 
d="M86 0v659h71l306 -400q60 -81 95 -134h2q-2 72 -2 116v418h74v-659h-62l-318 416q-48 62 -93 127h-2q3 -50 3 -113v-430h-74zM299 -237l-20 48q71 20 71 71q0 29 -24 66h67q24 -30 24 -73q0 -86 -118 -112z" />
    <glyph glyph-name="ncommaaccent" unicode="&#x146;" horiz-adv-x="506" 
d="M65 0v473h62l9 -61q86 73 166 73q61 0 100.5 -41t39.5 -125v-319h-73v294q0 125 -85 125q-65 0 -145 -71v-348h-74zM187 -237l-20 48q71 20 71 71q0 29 -24 66h67q24 -30 24 -73q0 -86 -118 -112z" />
    <glyph glyph-name="Ncaron" unicode="&#x147;" horiz-adv-x="718" 
d="M86 0v659h71l306 -400q60 -81 95 -134h2q-2 72 -2 116v418h74v-659h-62l-318 416q-48 62 -93 127h-2q3 -50 3 -113v-430h-74zM326 696l-98 147h64l70 -100l69 100h63l-99 -147h-69z" />
    <glyph glyph-name="ncaron" unicode="&#x148;" horiz-adv-x="507" 
d="M65 0v473h62l9 -61q86 73 166 73q61 0 100.5 -41t39.5 -125v-319h-73v294q0 125 -85 125q-65 0 -145 -71v-348h-74zM206 532l-98 147h64l70 -100l69 100h63l-99 -147h-69z" />
    <glyph glyph-name="Eng" unicode="&#x14a;" horiz-adv-x="718" 
d="M86 0v659h71l306 -400q60 -81 95 -134h2q-2 72 -2 116v418h74v-699q0 -78 -39 -117.5t-103 -39.5q-43 0 -74 14l17 61q22 -10 50 -10q40 0 57.5 25.5t17.5 79.5v43l-306 400q-48 62 -93 127h-2q3 -50 3 -113v-430h-74z" />
    <glyph glyph-name="eng" unicode="&#x14b;" horiz-adv-x="506" 
d="M234 -181l15 61q22 -10 47 -10q38 0 55.5 24t17.5 77v323q0 125 -85 125q-65 0 -145 -71v-348h-74v473h62l9 -61q86 73 166 73q61 0 100.5 -41t39.5 -125v-362q0 -76 -38 -114t-99 -38q-42 0 -71 14z" />
    <glyph glyph-name="Omacron" unicode="&#x14c;" horiz-adv-x="750" 
d="M375 -10q-140 0 -230.5 92.5t-90.5 243.5q0 149 90.5 243.5t230.5 94.5t230.5 -95t90.5 -243q0 -151 -91.5 -243.5t-229.5 -92.5zM375 54q110 0 176.5 74.5t66.5 197.5q0 120 -64.5 197t-178.5 77q-110 0 -176.5 -75.5t-66.5 -198.5t66.5 -197.5t176.5 -74.5zM254 717v59
h248v-59h-248z" />
    <glyph glyph-name="omacron" unicode="&#x14d;" horiz-adv-x="516" 
d="M258 -10q-97 0 -157.5 70.5t-60.5 176.5q0 107 60 177.5t159 70.5q97 0 157.5 -71t60.5 -177t-60.5 -176.5t-158.5 -70.5zM258 53q65 0 103.5 51t38.5 133t-38.5 133.5t-102.5 51.5q-65 0 -104 -51t-39 -134q0 -82 38.5 -133t103.5 -51zM134 574v59h248v-59h-248z" />
    <glyph glyph-name="Obreve" unicode="&#x14e;" horiz-adv-x="750" 
d="M375 -10q-140 0 -230.5 92.5t-90.5 243.5q0 149 90.5 243.5t230.5 94.5t230.5 -95t90.5 -243q0 -151 -91.5 -243.5t-229.5 -92.5zM375 54q110 0 176.5 74.5t66.5 197.5q0 120 -64.5 197t-178.5 77q-110 0 -176.5 -75.5t-66.5 -198.5t66.5 -197.5t176.5 -74.5zM449 825h53
q-4 -56 -37.5 -89t-88.5 -33t-87.5 33t-36.5 89h53q12 -69 72 -69q62 0 72 69z" />
    <glyph glyph-name="obreve" unicode="&#x14f;" horiz-adv-x="516" 
d="M258 -10q-97 0 -157.5 70.5t-60.5 176.5q0 107 60 177.5t159 70.5q97 0 157.5 -71t60.5 -177t-60.5 -176.5t-158.5 -70.5zM258 53q65 0 103.5 51t38.5 133t-38.5 133.5t-102.5 51.5q-65 0 -104 -51t-39 -134q0 -82 38.5 -133t103.5 -51zM330 666h53q-4 -56 -37.5 -89
t-88.5 -33t-87.5 33t-36.5 89h53q12 -69 72 -69q62 0 72 69z" />
    <glyph glyph-name="Ohungarumlaut" unicode="&#x150;" horiz-adv-x="750" 
d="M375 -10q-140 0 -230.5 92.5t-90.5 243.5q0 149 90.5 243.5t230.5 94.5t230.5 -95t90.5 -243q0 -151 -91.5 -243.5t-229.5 -92.5zM375 54q110 0 176.5 74.5t66.5 197.5q0 120 -64.5 197t-178.5 77q-110 0 -176.5 -75.5t-66.5 -198.5t66.5 -197.5t176.5 -74.5zM277 696
l58 147h86l-86 -147h-58zM437 696l58 147h86l-85 -147h-59z" />
    <glyph glyph-name="ohungarumlaut" unicode="&#x151;" horiz-adv-x="516" 
d="M258 -10q-97 0 -157.5 70.5t-60.5 176.5q0 107 60 177.5t159 70.5q97 0 157.5 -71t60.5 -177t-60.5 -176.5t-158.5 -70.5zM258 53q65 0 103.5 51t38.5 133t-38.5 133.5t-102.5 51.5q-65 0 -104 -51t-39 -134q0 -82 38.5 -133t103.5 -51zM155 531l58 147h86l-86 -147h-58z
M315 531l58 147h86l-85 -147h-59z" />
    <glyph glyph-name="OE" unicode="&#x152;" horiz-adv-x="867" 
d="M382 -10q-106 0 -181 48q-69 41 -107.5 115t-38.5 172q0 95 39 171t108 119q77 49 189 49q22 0 87.5 -2.5t104.5 -2.5h220l-23 -62h-221v-229h217v-61h-217v-245h250v-62h-214q-53 0 -124.5 -5t-88.5 -5zM387 54q61 0 98 8v532q-45 6 -96 6q-87 0 -145 -40
q-54 -34 -82.5 -94.5t-28.5 -139.5q0 -82 30.5 -143.5t87.5 -93.5q56 -35 136 -35z" />
    <glyph glyph-name="oe" unicode="&#x153;" horiz-adv-x="821" 
d="M257 -10q-97 0 -157 71t-60 176q0 106 60 177t157 71q60 0 105.5 -28.5t69.5 -77.5h2q21 50 63 78t95 28q88 0 138.5 -65.5t50.5 -177.5v-18h-308q2 -75 44 -123.5t114 -48.5q59 0 116 32l24 -52q-64 -42 -151 -42q-128 0 -184 110h-2q-55 -110 -177 -110zM258 52
q64 0 102 51.5t38 133.5q0 83 -37.5 134.5t-101.5 51.5q-65 0 -104 -51.5t-39 -134.5q0 -82 38.5 -133.5t103.5 -51.5zM474 281h229q-1 59 -29.5 101.5t-81.5 42.5t-85 -41.5t-33 -102.5z" />
    <glyph glyph-name="Racute" unicode="&#x154;" horiz-adv-x="540" 
d="M86 0v659h134q95 0 149 -35q77 -48 77 -145q0 -133 -134 -174v-2q25 -12 79 -105l120 -198h-86l-115 191q-49 82 -76 89h-74v-280h-74zM160 342h62q53 0 91 22q57 34 57 108q0 64 -42 94q-36 31 -105 31h-63v-255zM197 696l58 147h86l-86 -147h-58z" />
    <glyph glyph-name="racute" unicode="&#x155;" horiz-adv-x="320" 
d="M65 0v473h62l9 -60q66 72 133 72q30 0 51 -12l-26 -67q-20 10 -41 10q-47 0 -114 -68v-348h-74zM127 531l58 147h86l-86 -147h-58z" />
    <glyph glyph-name="Rcommaaccent" unicode="&#x156;" horiz-adv-x="540" 
d="M86 0v659h134q95 0 149 -35q77 -48 77 -145q0 -133 -134 -174v-2q25 -12 79 -105l120 -198h-86l-115 191q-49 82 -76 89h-74v-280h-74zM160 342h62q53 0 91 22q57 34 57 108q0 64 -42 94q-36 31 -105 31h-63v-255zM213 -237l-20 48q71 20 71 71q0 29 -24 66h67
q24 -30 24 -73q0 -86 -118 -112z" />
    <glyph glyph-name="rcommaaccent" unicode="&#x157;" horiz-adv-x="320" 
d="M65 0v473h62l9 -60q66 72 133 72q30 0 51 -12l-26 -67q-20 10 -41 10q-47 0 -114 -68v-348h-74zM48 -237l-20 48q71 20 71 71q0 29 -24 66h67q24 -30 24 -73q0 -86 -118 -112z" />
    <glyph glyph-name="Rcaron" unicode="&#x158;" horiz-adv-x="540" 
d="M86 0v659h134q95 0 149 -35q77 -48 77 -145q0 -133 -134 -174v-2q25 -12 79 -105l120 -198h-86l-115 191q-49 82 -76 89h-74v-280h-74zM160 342h62q53 0 91 22q57 34 57 108q0 64 -42 94q-36 31 -105 31h-63v-255zM205 696l-98 147h64l70 -100l69 100h63l-99 -147h-69z
" />
    <glyph glyph-name="rcaron" unicode="&#x159;" horiz-adv-x="320" 
d="M58 0v473h62l9 -60q66 72 133 72q30 0 51 -12l-26 -67q-20 10 -41 10q-47 0 -114 -68v-348h-74zM134 532l-98 147h64l70 -100l69 100h63l-99 -147h-69z" />
    <glyph glyph-name="Sacute" unicode="&#x15a;" horiz-adv-x="490" 
d="M53 40l31 58q67 -44 143 -44q58 0 95.5 26t37.5 81q0 43 -30 75.5t-72.5 55l-85 46.5t-72.5 64.5t-30 94.5q0 72 52 119.5t142 47.5q83 0 143 -30v-69q-64 36 -141 36q-50 0 -84.5 -24t-34.5 -73q0 -41 30 -72t72.5 -53.5l85 -47t72.5 -66.5t30 -99q0 -82 -57.5 -129
t-153.5 -47q-101 0 -173 50zM206 696l58 147h86l-86 -147h-58z" />
    <glyph glyph-name="sacute" unicode="&#x15b;" horiz-adv-x="379" 
d="M26 30l24 57q56 -35 118 -35q44 0 72.5 19t28.5 57q0 28 -23 47.5t-55.5 32.5t-64.5 28.5t-55 45.5t-23 73q0 56 42 93t118 37q60 0 117 -22v-65q-59 26 -114 26q-91 0 -91 -66q0 -29 23 -48.5t55.5 -32t65.5 -28t56 -46t23 -74.5q0 -68 -49 -103.5t-126 -35.5
q-79 0 -142 40zM158 531l58 147h86l-86 -147h-58z" />
    <glyph glyph-name="Scircumflex" unicode="&#x15c;" horiz-adv-x="490" 
d="M53 40l31 58q67 -44 143 -44q58 0 95.5 26t37.5 81q0 43 -30 75.5t-72.5 55l-85 46.5t-72.5 64.5t-30 94.5q0 72 52 119.5t142 47.5q83 0 143 -30v-69q-64 36 -141 36q-50 0 -84.5 -24t-34.5 -73q0 -41 30 -72t72.5 -53.5l85 -47t72.5 -66.5t30 -99q0 -82 -57.5 -129
t-153.5 -47q-101 0 -173 50zM116 696l98 147h69l99 -147h-64l-69 100l-70 -100h-63z" />
    <glyph glyph-name="scircumflex" unicode="&#x15d;" horiz-adv-x="379" 
d="M26 30l24 57q56 -35 118 -35q44 0 72.5 19t28.5 57q0 28 -23 47.5t-55.5 32.5t-64.5 28.5t-55 45.5t-23 73q0 56 42 93t118 37q60 0 117 -22v-65q-59 26 -114 26q-91 0 -91 -66q0 -29 23 -48.5t55.5 -32t65.5 -28t56 -46t23 -74.5q0 -68 -49 -103.5t-126 -35.5
q-79 0 -142 40zM58 531l98 147h69l99 -147h-64l-69 100l-70 -100h-63z" />
    <glyph glyph-name="Scedilla" unicode="&#x15e;" horiz-adv-x="481" 
d="M140 -200l14 43q23 -10 50 -10q53 0 53 39q0 24 -22 31t-63 7l25 81q-81 7 -144 49l31 58q67 -44 143 -44q58 0 95.5 26t37.5 81q0 43 -30 75.5t-72.5 55l-85 46.5t-72.5 64.5t-30 94.5q0 72 52 119.5t142 47.5q83 0 143 -30v-69q-64 36 -141 36q-50 0 -84.5 -24
t-34.5 -73q0 -41 30 -72t72.5 -53.5l85 -47t72.5 -66.5t30 -99q0 -75 -49 -121t-132 -53l-14 -46q81 -6 81 -72q0 -40 -31.5 -63t-84.5 -23q-37 0 -67 12z" />
    <glyph glyph-name="Scedilla" unicode="&#xf6c1;" horiz-adv-x="481" 
d="M140 -200l14 43q23 -10 50 -10q53 0 53 39q0 24 -22 31t-63 7l25 81q-81 7 -144 49l31 58q67 -44 143 -44q58 0 95.5 26t37.5 81q0 43 -30 75.5t-72.5 55l-85 46.5t-72.5 64.5t-30 94.5q0 72 52 119.5t142 47.5q83 0 143 -30v-69q-64 36 -141 36q-50 0 -84.5 -24
t-34.5 -73q0 -41 30 -72t72.5 -53.5l85 -47t72.5 -66.5t30 -99q0 -75 -49 -121t-132 -53l-14 -46q81 -6 81 -72q0 -40 -31.5 -63t-84.5 -23q-37 0 -67 12z" />
    <glyph glyph-name="scedilla" unicode="&#x15f;" horiz-adv-x="379" 
d="M85 -200l13 43q23 -10 50 -10q53 0 53 39q0 17 -13 25.5t-27 10.5t-37 2h-8l25 82q-64 5 -115 38l24 57q56 -35 118 -35q44 0 72.5 19t28.5 57q0 28 -23 47.5t-55.5 32.5t-64.5 28.5t-55 45.5t-23 73q0 56 42 93t118 37q60 0 117 -22v-65q-59 26 -114 26q-91 0 -91 -66
q0 -29 23 -48.5t55.5 -32t65.5 -28t56 -46t23 -74.5q0 -60 -39.5 -95t-103.5 -42l-14 -46q81 -6 81 -72q0 -40 -31.5 -63t-84.5 -23q-38 0 -66 12z" />
    <glyph glyph-name="scedilla" unicode="&#xf6c2;" horiz-adv-x="379" 
d="M85 -200l13 43q23 -10 50 -10q53 0 53 39q0 17 -13 25.5t-27 10.5t-37 2h-8l25 82q-64 5 -115 38l24 57q56 -35 118 -35q44 0 72.5 19t28.5 57q0 28 -23 47.5t-55.5 32.5t-64.5 28.5t-55 45.5t-23 73q0 56 42 93t118 37q60 0 117 -22v-65q-59 26 -114 26q-91 0 -91 -66
q0 -29 23 -48.5t55.5 -32t65.5 -28t56 -46t23 -74.5q0 -60 -39.5 -95t-103.5 -42l-14 -46q81 -6 81 -72q0 -40 -31.5 -63t-84.5 -23q-38 0 -66 12z" />
    <glyph glyph-name="Scaron" unicode="&#x160;" horiz-adv-x="490" 
d="M53 40l31 58q67 -44 143 -44q58 0 95.5 26t37.5 81q0 43 -30 75.5t-72.5 55l-85 46.5t-72.5 64.5t-30 94.5q0 72 52 119.5t142 47.5q83 0 143 -30v-69q-64 36 -141 36q-50 0 -84.5 -24t-34.5 -73q0 -41 30 -72t72.5 -53.5l85 -47t72.5 -66.5t30 -99q0 -82 -57.5 -129
t-153.5 -47q-101 0 -173 50zM212 696l-98 147h64l70 -100l69 100h63l-99 -147h-69z" />
    <glyph glyph-name="scaron" unicode="&#x161;" horiz-adv-x="379" 
d="M26 30l24 57q56 -35 118 -35q44 0 72.5 19t28.5 57q0 28 -23 47.5t-55.5 32.5t-64.5 28.5t-55 45.5t-23 73q0 56 42 93t118 37q60 0 117 -22v-65q-59 26 -114 26q-91 0 -91 -66q0 -29 23 -48.5t55.5 -32t65.5 -28t56 -46t23 -74.5q0 -68 -49 -103.5t-126 -35.5
q-79 0 -142 40zM155 532l-98 147h64l70 -100l69 100h63l-99 -147h-69z" />
    <glyph glyph-name="Tcommaaccent" unicode="&#x162;" horiz-adv-x="496" 
d="M182 -237l-20 48q71 20 71 71q0 29 -24 66h67q24 -30 24 -73q0 -86 -118 -112zM209 0v597h-189v62h471l-22 -62h-186v-597h-74z" />
    <glyph glyph-name="Tcommaaccent" unicode="&#x21a;" horiz-adv-x="496" 
d="M182 -237l-20 48q71 20 71 71q0 29 -24 66h67q24 -30 24 -73q0 -86 -118 -112zM209 0v597h-189v62h471l-22 -62h-186v-597h-74z" />
    <glyph glyph-name="tcommaaccent" unicode="&#x163;" horiz-adv-x="347" 
d="M208 -10q-51 0 -78.5 28.5t-27.5 81.5v313h-80v60h80v107l73 24v-131h141l-22 -60h-119v-301q0 -59 49 -59q39 0 77 26l26 -52q-51 -37 -119 -37zM119 -237l-20 48q71 20 71 71q0 29 -24 66h67q24 -30 24 -73q0 -86 -118 -112z" />
    <glyph glyph-name="tcommaaccent" unicode="&#x21b;" horiz-adv-x="347" 
d="M208 -10q-51 0 -78.5 28.5t-27.5 81.5v313h-80v60h80v107l73 24v-131h141l-22 -60h-119v-301q0 -59 49 -59q39 0 77 26l26 -52q-51 -37 -119 -37zM119 -237l-20 48q71 20 71 71q0 29 -24 66h67q24 -30 24 -73q0 -86 -118 -112z" />
    <glyph glyph-name="Tcaron" unicode="&#x164;" horiz-adv-x="496" 
d="M209 0v597h-189v62h471l-22 -62h-186v-597h-74zM214 696l-98 147h64l70 -100l69 100h63l-99 -147h-69z" />
    <glyph glyph-name="tcaron" unicode="&#x165;" horiz-adv-x="347" 
d="M208 -10q-51 0 -78.5 28.5t-27.5 81.5v313h-80v60h80v107l73 24v-131h141l-22 -60h-119v-301q0 -59 49 -59q39 0 77 26l26 -52q-51 -37 -119 -37zM256 515l-30 48q44 23 44 71q0 36 -23 74h67q24 -31 24 -74q0 -80 -82 -119z" />
    <glyph glyph-name="Tbar" unicode="&#x166;" horiz-adv-x="496" 
d="M209 0v294h-116v62h116v241h-189v62h471l-22 -62h-186v-241h117v-62h-117v-294h-74z" />
    <glyph glyph-name="tbar" unicode="&#x167;" horiz-adv-x="347" 
d="M22 236v60h80v117h-80v60h80v107l73 24v-131h141l-22 -60h-119v-117h92v-60h-92v-124q0 -59 49 -59q34 0 80 30l23 -52q-58 -41 -120 -41q-51 0 -78 28.5t-27 81.5v136h-80z" />
    <glyph glyph-name="Utilde" unicode="&#x168;" horiz-adv-x="652" 
d="M326 -10q-181 0 -230 140q-15 47 -15 106v423h74v-416q0 -54 13 -92q36 -98 158 -98t158 98q13 34 13 95v413h74v-423q0 -64 -17 -108q-49 -138 -228 -138zM191 726v23q0 35 20 55.5t51 20.5q30 0 72 -24t56 -24q26 0 26 42h53v-22q0 -35 -20 -56t-51 -21q-29 0 -71 24
t-57 24q-26 0 -26 -42h-53z" />
    <glyph glyph-name="utilde" unicode="&#x169;" horiz-adv-x="505" 
d="M204 -10q-40 0 -75.5 20.5t-51.5 67.5q-12 39 -12 86v309h74v-291q0 -51 8 -74q17 -53 78 -53q39 0 76 20t57 47v351h73v-313q0 -120 10 -160h-66l-14 55q-74 -65 -157 -65zM113 554v22q0 35 20 56t51 21q29 0 71.5 -24t56.5 -24q26 0 26 42h53v-22q0 -35 -20 -56
t-51 -21q-29 0 -71 24t-57 24q-26 0 -26 -42h-53z" />
    <glyph glyph-name="Umacron" unicode="&#x16a;" horiz-adv-x="652" 
d="M326 -10q-181 0 -230 140q-15 47 -15 106v423h74v-416q0 -54 13 -92q36 -98 158 -98t158 98q13 34 13 95v413h74v-423q0 -64 -17 -108q-49 -138 -228 -138zM206 717v59h248v-59h-248z" />
    <glyph glyph-name="umacron" unicode="&#x16b;" horiz-adv-x="505" 
d="M204 -10q-40 0 -75.5 20.5t-51.5 67.5q-12 39 -12 86v309h74v-291q0 -51 8 -74q17 -53 78 -53q39 0 76 20t57 47v351h73v-313q0 -120 10 -160h-66l-14 55q-74 -65 -157 -65zM128 574v59h248v-59h-248z" />
    <glyph glyph-name="Ubreve" unicode="&#x16c;" horiz-adv-x="652" 
d="M326 -10q-181 0 -230 140q-15 47 -15 106v423h74v-416q0 -54 13 -92q36 -98 158 -98t158 98q13 34 13 95v413h74v-423q0 -64 -17 -108q-49 -138 -228 -138zM401 825h53q-4 -56 -37.5 -89t-88.5 -33t-87.5 33t-36.5 89h53q12 -69 72 -69q62 0 72 69z" />
    <glyph glyph-name="ubreve" unicode="&#x16d;" horiz-adv-x="505" 
d="M204 -10q-40 0 -75.5 20.5t-51.5 67.5q-12 39 -12 86v309h74v-291q0 -51 8 -74q17 -53 78 -53q39 0 76 20t57 47v351h73v-313q0 -120 10 -160h-66l-14 55q-74 -65 -157 -65zM321 666h53q-4 -56 -37.5 -89t-88.5 -33t-87.5 33t-36.5 89h53q12 -69 72 -69q62 0 72 69z" />
    <glyph glyph-name="Uring" unicode="&#x16e;" horiz-adv-x="652" 
d="M326 -10q-181 0 -230 140q-15 47 -15 106v423h74v-416q0 -54 13 -92q36 -98 158 -98t158 98q13 34 13 95v413h74v-423q0 -64 -17 -108q-49 -138 -228 -138zM330 653q-46 0 -74.5 26t-28.5 69t28.5 69t74.5 26t74.5 -26t28.5 -69t-28.5 -69t-74.5 -26zM330 694
q22 0 35.5 14.5t13.5 39.5t-13.5 39.5t-35.5 14.5t-35.5 -14.5t-13.5 -39.5t13.5 -39.5t35.5 -14.5z" />
    <glyph glyph-name="uring" unicode="&#x16f;" horiz-adv-x="505" 
d="M204 -10q-40 0 -75.5 20.5t-51.5 67.5q-12 39 -12 86v309h74v-291q0 -51 8 -74q17 -53 78 -53q39 0 76 20t57 47v351h73v-313q0 -120 10 -160h-66l-14 55q-74 -65 -157 -65zM252 524q-46 0 -74.5 26t-28.5 69q0 42 29 68.5t74 26.5t74 -26.5t29 -68.5q0 -43 -28.5 -69
t-74.5 -26zM252 564q23 0 36 15t13 40t-13.5 39.5t-35.5 14.5t-35.5 -14.5t-13.5 -39.5t13 -40t36 -15z" />
    <glyph glyph-name="Uhungarumlaut" unicode="&#x170;" horiz-adv-x="652" 
d="M326 -10q-181 0 -230 140q-15 47 -15 106v423h74v-416q0 -54 13 -92q36 -98 158 -98t158 98q13 34 13 95v413h74v-423q0 -64 -17 -108q-49 -138 -228 -138zM209 696l58 147h86l-86 -147h-58zM369 696l58 147h86l-85 -147h-59z" />
    <glyph glyph-name="uhungarumlaut" unicode="&#x171;" horiz-adv-x="505" 
d="M204 -10q-40 0 -75.5 20.5t-51.5 67.5q-12 39 -12 86v309h74v-291q0 -51 8 -74q17 -53 78 -53q39 0 76 20t57 47v351h73v-313q0 -120 10 -160h-66l-14 55q-74 -65 -157 -65zM140 531l58 147h86l-86 -147h-58zM300 531l58 147h86l-85 -147h-59z" />
    <glyph glyph-name="Uogonek" unicode="&#x172;" horiz-adv-x="652" 
d="M400 -155l10 -47q-35 -11 -62 -11q-42 0 -66 23t-24 57q0 65 72 121v2q-184 -1 -234 140q-15 47 -15 106v423h74v-416q0 -54 13 -92q36 -98 158 -98t158 98q13 34 13 95v413h74v-423q0 -64 -17 -108q-29 -84 -110 -117q-50 -21 -85.5 -58.5t-35.5 -73.5q0 -41 38 -41
q13 0 39 7z" />
    <glyph glyph-name="uogonek" unicode="&#x173;" horiz-adv-x="505" 
d="M374 9l-13 46q-74 -65 -157 -65q-40 0 -75.5 20.5t-51.5 67.5q-12 39 -12 86v309h74v-291q0 -51 8 -74q17 -53 78 -53q39 0 76 20t57 47v351h73v-312q0 -126 10 -164q-105 -51 -105 -118q0 -41 38 -41q12 0 38 7l11 -47q-36 -11 -62 -11q-42 0 -66 23t-24 57
q0 79 103 142z" />
    <glyph glyph-name="Wcircumflex" unicode="&#x174;" horiz-adv-x="900" 
d="M238 -3l-222 662h82l128 -396l44 -148h2q16 54 48 147l98 285l-39 112h80l133 -398q35 -102 46 -145h2q19 74 41 143l125 400h78l-218 -662h-59l-105 309q-32 96 -46 142h-3q-16 -56 -46 -142l-109 -309h-60zM322 696l98 147h69l99 -147h-64l-69 100l-70 -100h-63z" />
    <glyph glyph-name="wcircumflex" unicode="&#x175;" horiz-adv-x="690" 
d="M167 -3l-156 476h77l112 -377h2l109 377h69l113 -377h2l110 377h75l-157 -476h-64l-112 379h-2l-113 -379h-65zM212 531l98 147h69l99 -147h-64l-69 100l-70 -100h-63z" />
    <glyph glyph-name="Ycircumflex" unicode="&#x176;" horiz-adv-x="536" 
d="M233 0v263l-217 396h82l172 -323h2l168 323h80l-214 -397v-262h-73zM138 696l98 147h69l99 -147h-64l-69 100l-70 -100h-63z" />
    <glyph glyph-name="ycircumflex" unicode="&#x177;" horiz-adv-x="466" 
d="M-15 -221l18 60q29 -13 65 -13q100 0 150 171l-208 476h79l162 -383h2l127 383h76l-177 -510q-42 -119 -92 -159.5t-118 -40.5q-46 0 -84 16zM106 531l98 147h69l99 -147h-64l-69 100l-70 -100h-63z" />
    <glyph glyph-name="Ydieresis" unicode="&#x178;" horiz-adv-x="536" 
d="M233 0v263l-217 396h82l172 -323h2l168 323h80l-214 -397v-262h-73zM182 706q-18 0 -30.5 12.5t-12.5 31.5q0 18 12.5 30.5t30.5 12.5t31 -12.5t13 -30.5q0 -19 -13 -31.5t-31 -12.5zM360 706q-18 0 -31 12.5t-13 31.5q0 18 13 30.5t31 12.5t30.5 -12.5t12.5 -30.5
q0 -19 -12.5 -31.5t-30.5 -12.5z" />
    <glyph glyph-name="Zacute" unicode="&#x179;" horiz-adv-x="546" 
d="M50 0l332 597h-310l-20 62h444l-330 -597h347v-62h-463zM238 696l58 147h86l-86 -147h-58z" />
    <glyph glyph-name="zacute" unicode="&#x17a;" horiz-adv-x="382" 
d="M21 0l239 413h-208l-17 60h336l-237 -413h235v-60h-348zM158 531l58 147h86l-86 -147h-58z" />
    <glyph glyph-name="Zdotaccent" unicode="&#x17b;" horiz-adv-x="546" 
d="M50 0l332 597h-310l-20 62h444l-330 -597h347v-62h-463zM280 706q-21 0 -34.5 14t-13.5 35t13.5 35.5t34.5 14.5q22 0 36 -14t14 -36q0 -21 -14 -35t-36 -14z" />
    <glyph glyph-name="zdotaccent" unicode="&#x17c;" horiz-adv-x="382" 
d="M21 0l239 413h-208l-17 60h336l-237 -413h235v-60h-348zM200 580q-21 0 -34.5 14t-13.5 35t13.5 35.5t34.5 14.5q22 0 36 -14t14 -36q0 -21 -14 -35t-36 -14z" />
    <glyph glyph-name="Zcaron" unicode="&#x17d;" horiz-adv-x="546" 
d="M50 0l332 597h-310l-20 62h444l-330 -597h347v-62h-463zM245 696l-98 147h64l70 -100l69 100h63l-99 -147h-69z" />
    <glyph glyph-name="zcaron" unicode="&#x17e;" horiz-adv-x="382" 
d="M21 0l239 413h-208l-17 60h336l-237 -413h235v-60h-348zM166 532l-98 147h64l70 -100l69 100h63l-99 -147h-69z" />
    <glyph glyph-name="florin" unicode="&#x192;" 
d="M279 320l-27 -297q-8 -99 -44 -140q-46 -53 -129 -53q-55 0 -102 23l28 59q31 -17 70 -17q52 0 76 35q21 29 24 82l28 308h-98v60h103l12 134q7 81 34 122q45 72 139 72q57 0 103 -23l-28 -58q-32 16 -70 16q-54 0 -80 -42q-16 -26 -20 -78l-13 -143h125l-22 -60h-109z
" />
    <glyph glyph-name="Aringacute" unicode="&#x1fa;" horiz-adv-x="586" 
d="M17 0l246 654q-34 7 -54.5 31.5t-20.5 60.5q0 39 24.5 64.5t64.5 29.5l44 113h86l-73 -120q60 -22 60 -87q0 -35 -20.5 -59.5t-54.5 -31.5l250 -655h-79l-66 177h-264l-65 -177h-78zM183 239h218l-69 191l-39 117h-2q-4 -17 -40 -117zM291 692q22 0 35.5 14.5t13.5 39.5
t-13.5 39.5t-35.5 14.5q-23 0 -36.5 -14.5t-13.5 -39.5t13.5 -39.5t36.5 -14.5z" />
    <glyph glyph-name="aringacute" unicode="&#x1fb;" horiz-adv-x="461" 
d="M229 517q-46 0 -74.5 26t-28.5 69q0 38 23.5 63t62.5 30l52 135h86l-83 -139q30 -9 47.5 -32.5t17.5 -56.5q0 -43 -28.5 -69t-74.5 -26zM229 557q23 0 36 15t13 40t-13.5 39.5t-35.5 14.5t-35.5 -14.5t-13.5 -39.5t13 -40t36 -15zM188 -10q-66 0 -108 39.5t-42 106.5
q0 91 80 128q39 20 118 23l90 3v30q0 52 -28 78t-74 26q-66 0 -130 -39l-28 52q75 48 166 48q77 0 122.5 -40t45.5 -121v-164q0 -124 9 -160h-65l-14 53q-67 -63 -142 -63zM201 52q66 0 125 62v120l-83 -3q-57 -1 -89 -18q-41 -23 -41 -73q0 -39 24 -63.5t64 -24.5z" />
    <glyph glyph-name="AEacute" unicode="&#x1fc;" horiz-adv-x="796" 
d="M16 0l343 659h373l-23 -62h-274l39 -229h231v-61h-220l43 -245h210v-62h-275l-31 177h-245l-93 -177h-78zM219 239h202l-32 195l-9 49.5t-10 59.5h-2q-17 -41 -59 -124zM439 696l58 147h86l-86 -147h-58z" />
    <glyph glyph-name="aeacute" unicode="&#x1fd;" horiz-adv-x="748" 
d="M191 -10q-66 0 -109.5 39.5t-43.5 106.5q0 73 52.5 109.5t142.5 36.5h96v38q0 52 -28.5 78t-75.5 26q-65 0 -131 -40l-28 53q75 48 165 48q108 0 144 -81h2q50 81 145 81q87 0 136.5 -65t49.5 -178v-17h-307q2 -76 43.5 -124.5t113.5 -48.5q58 0 117 32l23 -52
q-64 -42 -150 -42q-119 0 -179 93q-73 -93 -178 -93zM201 52q42 0 80 24.5t62 58.5q-14 42 -14 90h-89q-127 0 -127 -87q0 -39 24 -62.5t64 -23.5zM402 282h229q-2 59 -30.5 101t-80.5 42t-84 -41t-34 -102zM347 531l58 147h86l-86 -147h-58z" />
    <glyph glyph-name="Oslashacute" unicode="&#x1fe;" horiz-adv-x="752" 
d="M110 -15l-48 39l68 76q-75 91 -75 226q0 149 90.5 243.5t230.5 94.5q111 0 196 -67l68 78l49 -39l-72 -80q80 -93 80 -230q0 -151 -91.5 -243.5t-229.5 -92.5q-116 0 -201 69zM570 501l-351 -391q64 -56 157 -56q110 0 177 75t67 197q0 104 -50 175zM178 156l351 391
q-64 54 -153 54q-110 0 -177 -76t-67 -199q0 -101 46 -170zM338 696l58 147h86l-86 -147h-58z" />
    <glyph glyph-name="oslashacute" unicode="&#x1ff;" horiz-adv-x="516" 
d="M85 -20l-39 33l48 57q-54 70 -54 167q0 107 60 177.5t159 70.5q73 0 130 -47l41 52l40 -32l-46 -55q53 -71 53 -166q0 -106 -60.5 -176.5t-158.5 -70.5q-74 0 -129 45zM170 86q36 -34 88 -34q65 0 104 51.5t39 133.5q0 61 -22 108zM139 128l209 259q-37 37 -89 37
q-65 0 -104.5 -52t-39.5 -135q0 -65 24 -109zM225 531l58 147h86l-86 -147h-58z" />
    <glyph glyph-name="Scommaaccent" unicode="&#x218;" horiz-adv-x="490" 
d="M53 40l31 58q67 -44 143 -44q58 0 95.5 26t37.5 81q0 43 -30 75.5t-72.5 55l-85 46.5t-72.5 64.5t-30 94.5q0 72 52 119.5t142 47.5q83 0 143 -30v-69q-64 36 -141 36q-50 0 -84.5 -24t-34.5 -73q0 -41 30 -72t72.5 -53.5l85 -47t72.5 -66.5t30 -99q0 -82 -57.5 -129
t-153.5 -47q-101 0 -173 50zM172 -237l-20 48q71 20 71 71q0 29 -24 66h67q24 -30 24 -73q0 -86 -118 -112z" />
    <glyph glyph-name="scommaaccent" unicode="&#x219;" horiz-adv-x="379" 
d="M26 30l24 57q56 -35 118 -35q44 0 72.5 19t28.5 57q0 28 -23 47.5t-55.5 32.5t-64.5 28.5t-55 45.5t-23 73q0 56 42 93t118 37q60 0 117 -22v-65q-59 26 -114 26q-91 0 -91 -66q0 -29 23 -48.5t55.5 -32t65.5 -28t56 -46t23 -74.5q0 -68 -49 -103.5t-126 -35.5
q-79 0 -142 40zM126 -237l-20 48q71 20 71 71q0 29 -24 66h67q24 -30 24 -73q0 -86 -118 -112z" />
    <glyph glyph-name="circumflex" unicode="&#x2c6;" horiz-adv-x="360" 
d="M47 531l98 147h69l99 -147h-64l-69 100l-70 -100h-63z" />
    <glyph glyph-name="circumflex" unicode="&#x302;" horiz-adv-x="360" 
d="M47 531l98 147h69l99 -147h-64l-69 100l-70 -100h-63z" />
    <glyph glyph-name="caron" unicode="&#x2c7;" horiz-adv-x="360" 
d="M145 532l-98 147h64l70 -100l69 100h63l-99 -147h-69z" />
    <glyph glyph-name="caron" unicode="&#x30c;" horiz-adv-x="360" 
d="M145 532l-98 147h64l70 -100l69 100h63l-99 -147h-69z" />
    <glyph glyph-name="breve" unicode="&#x2d8;" horiz-adv-x="360" 
d="M252 666h53q-4 -56 -37.5 -89t-88.5 -33t-87.5 33t-36.5 89h53q12 -69 72 -69q62 0 72 69z" />
    <glyph glyph-name="breve" unicode="&#x306;" horiz-adv-x="360" 
d="M252 666h53q-4 -56 -37.5 -89t-88.5 -33t-87.5 33t-36.5 89h53q12 -69 72 -69q62 0 72 69z" />
    <glyph glyph-name="dotaccent" unicode="&#x2d9;" horiz-adv-x="360" 
d="M179 580q-21 0 -34.5 14t-13.5 35t13.5 35.5t34.5 14.5q22 0 36 -14t14 -36q0 -21 -14 -35t-36 -14z" />
    <glyph glyph-name="dotaccent" unicode="&#x307;" horiz-adv-x="360" 
d="M179 580q-21 0 -34.5 14t-13.5 35t13.5 35.5t34.5 14.5q22 0 36 -14t14 -36q0 -21 -14 -35t-36 -14z" />
    <glyph glyph-name="ring" unicode="&#x2da;" horiz-adv-x="360" 
d="M180 524q-46 0 -74.5 26t-28.5 69q0 42 29 68.5t74 26.5t74 -26.5t29 -68.5q0 -43 -28.5 -69t-74.5 -26zM180 564q23 0 36 15t13 40t-13.5 39.5t-35.5 14.5t-35.5 -14.5t-13.5 -39.5t13 -40t36 -15z" />
    <glyph glyph-name="ring" unicode="&#x30a;" horiz-adv-x="360" 
d="M180 524q-46 0 -74.5 26t-28.5 69q0 42 29 68.5t74 26.5t74 -26.5t29 -68.5q0 -43 -28.5 -69t-74.5 -26zM180 564q23 0 36 15t13 40t-13.5 39.5t-35.5 14.5t-35.5 -14.5t-13.5 -39.5t13 -40t36 -15z" />
    <glyph glyph-name="ogonek" unicode="&#x2db;" horiz-adv-x="360" 
d="M235 -155l10 -47q-35 -11 -61 -11q-43 0 -67 23t-24 57q0 26 10 49t29.5 42.5t33 29.5t35.5 25l65 -13q-108 -56 -108 -121q0 -41 39 -41q12 0 38 7z" />
    <glyph glyph-name="ogonek" unicode="&#x328;" horiz-adv-x="360" 
d="M235 -155l10 -47q-35 -11 -61 -11q-43 0 -67 23t-24 57q0 26 10 49t29.5 42.5t33 29.5t35.5 25l65 -13q-108 -56 -108 -121q0 -41 39 -41q12 0 38 7z" />
    <glyph glyph-name="tilde" unicode="&#x2dc;" horiz-adv-x="360" 
d="M41 554v22q0 35 20 56t51 21q30 0 72 -24t56 -24q26 0 26 42h53v-22q0 -35 -20 -56t-51 -21q-29 0 -71 24t-57 24q-26 0 -26 -42h-53z" />
    <glyph glyph-name="tilde" unicode="&#x303;" horiz-adv-x="360" 
d="M41 554v22q0 35 20 56t51 21q30 0 72 -24t56 -24q26 0 26 42h53v-22q0 -35 -20 -56t-51 -21q-29 0 -71 24t-57 24q-26 0 -26 -42h-53z" />
    <glyph glyph-name="hungarumlaut" unicode="&#x2dd;" horiz-adv-x="360" 
d="M82 531l58 147h86l-86 -147h-58zM242 531l58 147h86l-85 -147h-59z" />
    <glyph glyph-name="hungarumlaut" unicode="&#x30b;" horiz-adv-x="360" 
d="M82 531l58 147h86l-86 -147h-58zM242 531l58 147h86l-85 -147h-59z" />
    <glyph glyph-name="caronSlovak" unicode="&#x313;" horiz-adv-x="360" 
d="M154 515l-30 48q44 23 44 71q0 36 -23 74h67q24 -31 24 -74q0 -80 -82 -119z" />
    <glyph glyph-name="caronSlovak" unicode="&#x315;" horiz-adv-x="360" 
d="M154 515l-30 48q44 23 44 71q0 36 -23 74h67q24 -31 24 -74q0 -80 -82 -119z" />
    <glyph glyph-name="commaaccent" unicode="&#x326;" horiz-adv-x="360" 
d="M131 -237l-20 48q71 20 71 71q0 29 -24 66h67q24 -30 24 -73q0 -86 -118 -112z" />
    <glyph glyph-name="commaaccent" unicode="&#xf6c3;" horiz-adv-x="360" 
d="M131 -237l-20 48q71 20 71 71q0 29 -24 66h67q24 -30 24 -73q0 -86 -118 -112z" />
    <glyph glyph-name="Omega" unicode="&#x3a9;" horiz-adv-x="721" 
d="M50 0v62h68q52 0 85 -5l1 2q-71 49 -113.5 123t-42.5 165q0 128 83.5 222.5t229.5 94.5q99 0 171.5 -47t106.5 -117.5t34 -152.5q0 -91 -42 -165t-113 -123v-2q33 5 85 5h68v-62h-252v51q176 108 176 294q0 106 -61 180.5t-173 74.5t-173.5 -74.5t-61.5 -180.5
q0 -186 176 -294v-51h-252z" />
    <glyph glyph-name="Omega" unicode="&#x2126;" horiz-adv-x="721" 
d="M50 0v62h68q52 0 85 -5l1 2q-71 49 -113.5 123t-42.5 165q0 128 83.5 222.5t229.5 94.5q99 0 171.5 -47t106.5 -117.5t34 -152.5q0 -91 -42 -165t-113 -123v-2q33 5 85 5h68v-62h-252v51q176 108 176 294q0 106 -61 180.5t-173 74.5t-173.5 -74.5t-61.5 -180.5
q0 -186 176 -294v-51h-252z" />
    <glyph glyph-name="pi" unicode="&#x3c0;" horiz-adv-x="573" 
d="M108 0v413h-84v60h526l-21 -60h-85v-306q0 -47 35 -47q10 0 21 4l14 -61q-26 -9 -54 -9q-89 0 -89 94v325h-190v-413h-73z" />
    <glyph glyph-name="Wgrave" unicode="&#x1e80;" horiz-adv-x="900" 
d="M238 -3l-222 662h82l128 -396l44 -148h2q16 54 48 147l98 285l-39 112h80l133 -398q35 -102 46 -145h2q19 74 41 143l125 400h78l-218 -662h-59l-105 309q-32 96 -46 142h-3q-16 -56 -46 -142l-109 -309h-60zM420 696l-86 147h87l58 -147h-59z" />
    <glyph glyph-name="wgrave" unicode="&#x1e81;" horiz-adv-x="690" 
d="M167 -3l-156 476h77l112 -377h2l109 377h69l113 -377h2l110 377h75l-157 -476h-64l-112 379h-2l-113 -379h-65zM330 531l-86 147h87l58 -147h-59z" />
    <glyph glyph-name="Wacute" unicode="&#x1e82;" horiz-adv-x="900" 
d="M238 -3l-222 662h82l128 -396l44 -148h2q16 54 48 147l98 285l-39 112h80l133 -398q35 -102 46 -145h2q19 74 41 143l125 400h78l-218 -662h-59l-105 309q-32 96 -46 142h-3q-16 -56 -46 -142l-109 -309h-60zM412 696l58 147h86l-86 -147h-58z" />
    <glyph glyph-name="wacute" unicode="&#x1e83;" horiz-adv-x="690" 
d="M167 -3l-156 476h77l112 -377h2l109 377h69l113 -377h2l110 377h75l-157 -476h-64l-112 379h-2l-113 -379h-65zM302 531l58 147h86l-86 -147h-58z" />
    <glyph glyph-name="Wdieresis" unicode="&#x1e84;" horiz-adv-x="900" 
d="M238 -3l-222 662h82l128 -396l44 -148h2q16 54 48 147l98 285l-39 112h80l133 -398q35 -102 46 -145h2q19 74 41 143l125 400h78l-218 -662h-59l-105 309q-32 96 -46 142h-3q-16 -56 -46 -142l-109 -309h-60zM366 706q-18 0 -30.5 12.5t-12.5 31.5q0 18 12.5 30.5
t30.5 12.5t31 -12.5t13 -30.5q0 -19 -13 -31.5t-31 -12.5zM544 706q-18 0 -31 12.5t-13 31.5q0 18 13 30.5t31 12.5t30.5 -12.5t12.5 -30.5q0 -19 -12.5 -31.5t-30.5 -12.5z" />
    <glyph glyph-name="wdieresis" unicode="&#x1e85;" horiz-adv-x="690" 
d="M167 -3l-156 476h77l112 -377h2l109 377h69l113 -377h2l110 377h75l-157 -476h-64l-112 379h-2l-113 -379h-65zM256 561q-18 0 -30.5 12.5t-12.5 30.5q0 19 12.5 31.5t30.5 12.5t31 -12.5t13 -31.5q0 -18 -13 -30.5t-31 -12.5zM434 561q-18 0 -31 12.5t-13 30.5
q0 19 13 31.5t31 12.5t30.5 -12.5t12.5 -31.5q0 -18 -12.5 -30.5t-30.5 -12.5z" />
    <glyph glyph-name="Ygrave" unicode="&#x1ef2;" horiz-adv-x="536" 
d="M233 0v263l-217 396h82l172 -323h2l168 323h80l-214 -397v-262h-73zM256 696l-86 147h87l58 -147h-59z" />
    <glyph glyph-name="ygrave" unicode="&#x1ef3;" horiz-adv-x="466" 
d="M-15 -221l18 60q29 -13 65 -13q100 0 150 171l-208 476h79l162 -383h2l127 383h76l-177 -510q-42 -119 -92 -159.5t-118 -40.5q-46 0 -84 16zM224 531l-86 147h87l58 -147h-59z" />
    <glyph glyph-name="endash" unicode="&#x2013;" horiz-adv-x="450" 
d="M0 224v59h450v-59h-450z" />
    <glyph glyph-name="emdash" unicode="&#x2014;" horiz-adv-x="800" 
d="M0 224v59h800v-59h-800z" />
    <glyph glyph-name="quoteleft" unicode="&#x2018;" horiz-adv-x="226" 
d="M102 452q-36 67 -36 130q0 61 37 134l42 -10q-13 -45 -13 -85q0 -60 36 -134z" />
    <glyph glyph-name="quoteright" unicode="&#x2019;" horiz-adv-x="226" 
d="M48 483q46 75 46 150q0 35 -7 67l74 14q6 -33 6 -64q0 -105 -82 -188z" />
    <glyph glyph-name="quotesinglbase" unicode="&#x201a;" horiz-adv-x="226" 
d="M38 -117q46 75 46 150q0 35 -7 67l74 14q6 -33 6 -64q0 -105 -82 -188z" />
    <glyph glyph-name="quotedblleft" unicode="&#x201c;" horiz-adv-x="384" 
d="M102 452q-36 67 -36 130q0 61 37 134l42 -10q-13 -45 -13 -85q0 -60 36 -134zM260 452q-35 68 -35 130q0 63 36 134l42 -10q-12 -41 -12 -85q0 -64 36 -134z" />
    <glyph glyph-name="quotedblright" unicode="&#x201d;" horiz-adv-x="384" 
d="M48 483q46 75 46 150q0 35 -7 67l74 14q6 -33 6 -64q0 -105 -82 -188zM206 483q46 75 46 150q0 35 -7 67l74 14q6 -33 6 -64q0 -105 -82 -188z" />
    <glyph glyph-name="quotedblbase" unicode="&#x201e;" horiz-adv-x="384" 
d="M38 -117q46 75 46 150q0 35 -7 67l74 14q6 -33 6 -64q0 -105 -82 -188zM196 -117q46 75 46 150q0 35 -7 67l74 14q6 -33 6 -64q0 -105 -82 -188z" />
    <glyph glyph-name="dagger" unicode="&#x2020;" horiz-adv-x="511" 
d="M221 -46v151q0 104 3 198t3 111q-17 0 -73 -5.5t-80 -5.5v73q24 -1 80.5 -6.5t73.5 -6.5q0 22 -4.5 79t-4.5 82h73q0 -25 -4.5 -82t-4.5 -79q17 1 73.5 6.5t80.5 6.5v-73q-24 0 -80.5 5.5t-73.5 5.5q0 -8 3.5 -105t3.5 -204v-151h-69z" />
    <glyph glyph-name="daggerdbl" unicode="&#x2021;" horiz-adv-x="511" 
d="M219 -46q0 25 4.5 82t4.5 79q-17 -1 -73.5 -6.5t-80.5 -6.5v74q24 0 80 -5.5t73 -5.5q0 14 -2.5 52.5t-2.5 65.5q0 30 2.5 73t2.5 58q-17 0 -73 -5.5t-80 -5.5v73q24 -1 80.5 -6.5t73.5 -6.5q0 22 -4.5 79t-4.5 82h73q0 -25 -4.5 -82t-4.5 -79q17 1 73.5 6.5t80.5 6.5
v-73q-24 0 -80.5 5.5t-73.5 5.5q0 -11 2.5 -54.5t2.5 -76.5q0 -29 -2.5 -68t-2.5 -50q18 0 74 5.5t80 5.5v-74q-24 1 -80.5 6.5t-73.5 6.5q0 -22 4.5 -79t4.5 -82h-73z" />
    <glyph glyph-name="bullet" unicode="&#x2022;" horiz-adv-x="298" 
d="M148 213q-43 0 -72 30.5t-29 74.5t29 74.5t72 30.5q44 0 73.5 -30.5t29.5 -74.5t-29.5 -74.5t-73.5 -30.5z" />
    <glyph glyph-name="ellipsis" unicode="&#x2026;" horiz-adv-x="894" 
d="M163 -8q-19 0 -33 15t-14 35t14 34.5t33 14.5q20 0 34 -14.5t14 -34.5t-14 -35t-34 -15zM447 -8q-20 0 -34 15t-14 35t14 34.5t34 14.5q19 0 33 -14.5t14 -34.5t-14 -35t-33 -15zM730 -8q-19 0 -33 15t-14 35t14 34.5t33 14.5q20 0 34 -14.5t14 -34.5t-14 -35t-34 -15z
" />
    <glyph glyph-name="perthousand" unicode="&#x2030;" horiz-adv-x="1179" 
d="M206 318q-64 0 -106 45t-42 128t42 128t106 45q65 0 106.5 -45t41.5 -128t-41.5 -128t-106.5 -45zM206 369q40 0 63 33.5t23 88.5t-23 88.5t-63 33.5t-62.5 -33.5t-22.5 -88.5t22.5 -88.5t62.5 -33.5zM621 -10q-64 0 -106 45.5t-42 127.5q0 83 42 128.5t106 45.5
t106 -45.5t42 -128.5q0 -82 -42 -127.5t-106 -45.5zM621 42q40 0 62.5 33t22.5 88q0 56 -22.5 89t-62.5 33q-41 0 -63.5 -33t-22.5 -89q0 -55 22.5 -88t63.5 -33zM973 -10q-64 0 -106 45.5t-42 127.5q0 83 42 128.5t106 45.5t106 -45.5t42 -128.5q0 -82 -42 -127.5
t-106 -45.5zM973 42q40 0 62.5 33t22.5 88q0 56 -22.5 89t-62.5 33q-41 0 -63.5 -33t-22.5 -89q0 -55 22.5 -88t63.5 -33zM175 0l411 659h66l-412 -659h-65z" />
    <glyph glyph-name="guilsinglleft" unicode="&#x2039;" horiz-adv-x="342" 
d="M213 13l-166 228l166 229l59 -35l-141 -194l141 -193z" />
    <glyph glyph-name="guilsinglright" unicode="&#x203a;" horiz-adv-x="342" 
d="M68 48l140 193l-140 194l58 35l166 -229l-166 -228z" />
    <glyph glyph-name="fraction" unicode="&#x2044;" horiz-adv-x="119" 
d="M-179 0l411 659h66l-412 -659h-65z" />
    <glyph glyph-name="fraction" unicode="&#x2215;" horiz-adv-x="119" 
d="M-179 0l411 659h66l-412 -659h-65z" />
    <glyph glyph-name="zerosuperior" unicode="&#x2070;" horiz-adv-x="368" 
d="M183 397q-63 0 -101.5 52.5t-38.5 146.5t39 145.5t103 51.5q63 0 102 -52.5t39 -147.5q0 -93 -39.5 -144.5t-103.5 -51.5zM186 450q38 0 56.5 40t18.5 102q0 70 -20.5 109t-57.5 39t-56 -40t-19 -101q0 -69 20.5 -109t57.5 -40z" />
    <glyph glyph-name="foursuperior" unicode="&#x2074;" horiz-adv-x="368" 
d="M34 492v41l192 259h55v-250h53v-50h-53v-88h-62v88h-185zM103 542h73h43v42q0 70 3 119z" />
    <glyph glyph-name="fivesuperior" unicode="&#x2075;" horiz-adv-x="332" 
d="M32 419l18 51q39 -20 82 -20q86 0 86 70q0 38 -33 55q-24 10 -73 10h-52v199h224l-14 -53h-149v-96h18q51 0 80 -13q64 -26 64 -101q0 -56 -39 -90t-111 -34q-60 0 -101 22z" />
    <glyph glyph-name="sixsuperior" unicode="&#x2076;" horiz-adv-x="347" 
d="M183 397q-60 0 -100 46t-40 136q0 91 48.5 152.5t126.5 61.5q42 0 77 -16l-17 -50q-26 13 -58 13q-41 0 -71 -30.5t-38 -84.5h2q37 22 80 22q53 0 87 -33t34 -89q0 -58 -37.5 -93t-93.5 -35zM186 449q30 0 47.5 19t17.5 54q0 33 -19.5 52.5t-50.5 19.5q-34 0 -72 -26
q-1 -53 20 -86t57 -33z" />
    <glyph glyph-name="sevensuperior" unicode="&#x2077;" horiz-adv-x="312" 
d="M59 404q42 184 150 327h-174l-14 53h270v-32q-122 -146 -163 -348h-69z" />
    <glyph glyph-name="eightsuperior" unicode="&#x2078;" horiz-adv-x="368" 
d="M180 397q-62 0 -99 28t-37 78q0 72 73 98v2q-61 28 -61 88q0 46 35 74t92 28t91.5 -28t34.5 -74q0 -61 -60 -87v-2q75 -24 75 -95q0 -51 -40.5 -80.5t-103.5 -29.5zM182 450q31 0 54 15t23 43q0 48 -86 70q-27 -7 -46 -24.5t-19 -44.5q0 -28 21.5 -43.5t52.5 -15.5z
M190 625q55 21 55 65q0 21 -17 35.5t-45 14.5t-45 -13t-17 -36q0 -47 69 -66z" />
    <glyph glyph-name="ninesuperior" unicode="&#x2079;" horiz-adv-x="347" 
d="M133 397q-48 0 -89 17l17 52q31 -16 70 -16q47 0 76 31t34 90h-2q-39 -28 -85 -28q-51 0 -85.5 30t-34.5 90q0 58 36 94t92 36q65 0 103.5 -47.5t38.5 -139.5q0 -96 -45 -152.5t-126 -56.5zM165 595q21 0 42 11t32 26q-1 51 -22 79.5t-55 28.5q-30 0 -47.5 -20t-17.5 -51
q0 -34 18 -54t50 -20z" />
    <glyph glyph-name="plussuperior" unicode="&#x207a;" horiz-adv-x="413" 
d="M179 434v135h-127v54h127v131h55v-131h127v-54h-127v-135h-55z" />
    <glyph glyph-name="minussuperior" unicode="&#x207b;" horiz-adv-x="413" 
d="M52 569v54h309v-54h-309z" />
    <glyph glyph-name="equalsuperior" unicode="&#x207c;" horiz-adv-x="413" 
d="M52 633v53h309v-53h-309zM52 506v53h309v-53h-309z" />
    <glyph glyph-name="parenleftsuperior" unicode="&#x207d;" horiz-adv-x="239" 
d="M160 357q-103 93 -103 239t103 239l38 -31q-79 -85 -79 -208t79 -208z" />
    <glyph glyph-name="parenrightsuperior" unicode="&#x207e;" horiz-adv-x="239" 
d="M41 388q79 83 79 208t-79 208l39 31q102 -93 102 -239t-102 -239z" />
    <glyph glyph-name="n.superior" unicode="&#x207f;" horiz-adv-x="377" 
d="M52 270v332h52l5 -38q59 47 115 47q44 0 73.5 -30t29.5 -89v-222h-60v206q0 79 -56 79q-40 0 -98 -45v-240h-61z" />
    <glyph glyph-name="zeroinferior" unicode="&#x2080;" horiz-adv-x="368" 
d="M183 -187q-63 0 -101.5 52.5t-38.5 146.5t39 145.5t103 51.5q63 0 102 -52.5t39 -147.5q0 -93 -39.5 -144.5t-103.5 -51.5zM186 -134q38 0 56.5 40t18.5 102q0 70 -20.5 109t-57.5 39t-56 -40t-19 -101q0 -69 20.5 -109t57.5 -40z" />
    <glyph glyph-name="oneinferior" unicode="&#x2081;" horiz-adv-x="324" 
d="M176 -180v322l-119 -47l-23 48l154 65h50v-388h-62z" />
    <glyph glyph-name="twoinferior" unicode="&#x2082;" horiz-adv-x="327" 
d="M30 -180q2 53 23 94t48 64.5t54.5 43t46 40t18.5 43.5t-16.5 36.5t-44.5 13.5q-40 0 -95 -30l-21 48q63 36 123 36q57 0 88 -27.5t31 -73.5q0 -31 -16.5 -56t-41 -43l-49.5 -36t-46.5 -43t-27.5 -54h181v-56h-255z" />
    <glyph glyph-name="threeinferior" unicode="&#x2083;" horiz-adv-x="330" 
d="M21 -165l17 50q41 -19 85 -19q91 0 91 63q0 39 -41 52q-21 8 -64 8h-40v51h35q38 0 61 10q37 16 37 53q0 26 -18.5 39t-46.5 13q-41 0 -87 -21l-19 48q58 27 115 27q55 0 88 -27.5t33 -71.5q0 -65 -69 -90v-2q38 -7 59.5 -31.5t21.5 -62.5q0 -48 -39 -79.5t-115 -31.5
q-60 0 -104 22z" />
    <glyph glyph-name="fourinferior" unicode="&#x2084;" horiz-adv-x="368" 
d="M34 -92v41l192 259h55v-250h53v-50h-53v-88h-62v88h-185zM103 -42h73h43v42q0 70 3 119z" />
    <glyph glyph-name="fiveinferior" unicode="&#x2085;" horiz-adv-x="332" 
d="M32 -165l18 51q39 -20 82 -20q86 0 86 70q0 38 -33 55q-24 10 -73 10h-52v199h224l-14 -53h-149v-96h18q51 0 80 -13q64 -26 64 -101q0 -56 -39 -90t-111 -34q-60 0 -101 22z" />
    <glyph glyph-name="sixinferior" unicode="&#x2086;" horiz-adv-x="347" 
d="M183 -187q-60 0 -100 46t-40 136q0 91 48.5 152.5t126.5 61.5q42 0 77 -16l-17 -50q-26 13 -58 13q-41 0 -71 -30.5t-38 -84.5h2q37 22 80 22q53 0 87 -33t34 -89q0 -58 -37.5 -93t-93.5 -35zM186 -135q30 0 47.5 19t17.5 54q0 33 -19.5 52.5t-50.5 19.5q-34 0 -72 -26
q-1 -53 20 -86t57 -33z" />
    <glyph glyph-name="seveninferior" unicode="&#x2087;" horiz-adv-x="312" 
d="M59 -180q42 184 150 327h-174l-14 53h270v-32q-122 -146 -163 -348h-69z" />
    <glyph glyph-name="eightinferior" unicode="&#x2088;" horiz-adv-x="368" 
d="M180 -187q-62 0 -99 28t-37 78q0 72 73 98v2q-61 28 -61 88q0 46 35 74t92 28t91.5 -28t34.5 -74q0 -61 -60 -87v-2q75 -24 75 -95q0 -51 -40.5 -80.5t-103.5 -29.5zM182 -134q31 0 54 15t23 43q0 48 -86 70q-27 -7 -46 -24.5t-19 -44.5q0 -28 21.5 -43.5t52.5 -15.5z
M190 41q55 21 55 65q0 21 -17 35.5t-45 14.5t-45 -13t-17 -36q0 -47 69 -66z" />
    <glyph glyph-name="nineinferior" unicode="&#x2089;" horiz-adv-x="347" 
d="M133 -187q-48 0 -89 17l17 52q31 -16 70 -16q47 0 76 31t34 90h-2q-39 -28 -85 -28q-51 0 -85.5 30t-34.5 90q0 58 36 94t92 36q65 0 103.5 -47.5t38.5 -139.5q0 -96 -45 -152.5t-126 -56.5zM165 11q21 0 42 11t32 26q-1 51 -22 79.5t-55 28.5q-30 0 -47.5 -20t-17.5 -51
q0 -34 18 -54t50 -20z" />
    <glyph glyph-name="plusinferior" unicode="&#x208a;" horiz-adv-x="413" 
d="M179 -150v135h-127v54h127v131h55v-131h127v-54h-127v-135h-55z" />
    <glyph glyph-name="minusinferior" unicode="&#x208b;" horiz-adv-x="413" 
d="M52 -15v54h309v-54h-309z" />
    <glyph glyph-name="equalinferior" unicode="&#x208c;" horiz-adv-x="413" 
d="M52 49v53h309v-53h-309zM52 -78v53h309v-53h-309z" />
    <glyph glyph-name="parenleftinferior" unicode="&#x208d;" horiz-adv-x="239" 
d="M160 -227q-103 93 -103 239t103 239l38 -31q-79 -85 -79 -208t79 -208z" />
    <glyph glyph-name="parenrightinferior" unicode="&#x208e;" horiz-adv-x="239" 
d="M41 -196q79 83 79 208t-79 208l39 31q102 -93 102 -239t-102 -239z" />
    <glyph glyph-name="Euro" unicode="&#x20ac;" 
d="M472 91l29 -58q-66 -43 -155 -43q-106 0 -168.5 60.5t-82.5 164.5h-71v55h63q-1 17 -1 52q0 30 3 62h-65v55h75q25 102 90 163.5t160 61.5q75 0 133 -33v-73q-65 38 -126 38q-68 0 -113.5 -42t-64.5 -115h270l-20 -55h-261q-3 -20 -3 -59q0 -36 2 -55h254l-20 -55h-223
q18 -73 61 -116.5t112 -43.5q60 0 122 36z" />
    <glyph glyph-name="litre" unicode="&#x2113;" horiz-adv-x="466" 
d="M18 147l-17 63q45 12 84 27v145q0 144 50 213t129 69q64 0 97.5 -39.5t33.5 -100.5q0 -91 -62.5 -179.5t-173.5 -144.5q4 -144 98 -144q56 0 112 45l33 -54q-71 -57 -153 -57q-71 0 -113.5 46.5t-48.5 131.5q-33 -12 -69 -21zM158 372v-99q81 48 121.5 115.5t40.5 137.5
q0 34 -15 55.5t-44 21.5q-45 0 -74 -57t-29 -174z" />
    <glyph glyph-name="numero" unicode="&#x2116;" horiz-adv-x="1042" 
d="M82 0v659h70l252 -378q46 -68 92 -146h3q-3 54 -3 118v406h73v-659h-61l-264 394l-89 139h-2q2 -70 2 -115v-418h-73zM662 140v51h308v-51h-308zM815 263q-70 0 -113.5 50t-43.5 124t43.5 124t114.5 50t114.5 -50t43.5 -124t-44 -124t-115 -50zM815 317q44 0 70.5 33.5
t26.5 86.5t-26.5 86.5t-69.5 33.5t-69 -33.5t-26 -86.5t26 -86.5t68 -33.5z" />
    <glyph glyph-name="published" unicode="&#x2117;" horiz-adv-x="780" 
d="M390 -10q-143 0 -237.5 97t-94.5 240t94.5 240t237.5 97q142 0 237 -97t95 -240t-95 -240t-237 -97zM390 34q121 0 200.5 83.5t79.5 209.5t-79.5 209t-200.5 83t-200.5 -83t-79.5 -209t79.5 -209.5t200.5 -83.5zM291 132v388h105q64 0 100 -33t36 -90q0 -59 -37 -92.5
t-104 -33.5h-48v-139h-52zM343 317h51q84 0 84 78q0 79 -81 79h-54v-157z" />
    <glyph glyph-name="published" unicode="&#x24c5;" horiz-adv-x="780" 
d="M390 -10q-143 0 -237.5 97t-94.5 240t94.5 240t237.5 97q142 0 237 -97t95 -240t-95 -240t-237 -97zM390 34q121 0 200.5 83.5t79.5 209.5t-79.5 209t-200.5 83t-200.5 -83t-79.5 -209t79.5 -209.5t200.5 -83.5zM291 132v388h105q64 0 100 -33t36 -90q0 -59 -37 -92.5
t-104 -33.5h-48v-139h-52zM343 317h51q84 0 84 78q0 79 -81 79h-54v-157z" />
    <glyph glyph-name="trademark" unicode="&#x2122;" horiz-adv-x="830" 
d="M135 264v345h-109v50h286l-14 -50h-104v-345h-59zM350 264v395h53l100 -149q29 -44 41 -70h3q16 33 41 70l99 149h54v-395h-59v222q0 54 4 83h-2q-21 -37 -36 -61l-87 -130h-31l-86 130q-15 22 -37 61h-2q4 -29 4 -83v-222h-59z" />
    <glyph glyph-name="estimated" unicode="&#x212e;" horiz-adv-x="754" 
d="M590 119h90q-103 -129 -304 -129q-146 0 -248.5 84.5t-102.5 226.5q0 143 103 226.5t252 83.5q86 0 154.5 -28t110.5 -74.5t63.5 -104t19.5 -119.5h-556v-160q32 -46 88 -71.5t121 -25.5q134 0 209 91zM172 324h414v152q-68 97 -206 97q-139 0 -208 -97v-152z" />
    <glyph glyph-name="partialdiff" unicode="&#x2202;" horiz-adv-x="507" 
d="M209 -10q-81 0 -130 53t-49 141q0 102 65 169t168 67q71 0 124 -30l1 1q-8 97 -54 154.5t-121 57.5q-63 0 -129 -33l-22 54q72 40 154 40q122 0 186.5 -86t64.5 -225q0 -165 -72 -264t-186 -99zM216 52q70 0 120.5 72t54.5 202q-55 32 -120 32q-75 0 -120 -47.5
t-45 -125.5q0 -62 30 -97.5t80 -35.5z" />
    <glyph glyph-name="Delta" unicode="&#x2206;" horiz-adv-x="598" 
d="M16 0l254 661h58l254 -661h-566zM116 62h365l-155 418q-19 54 -26 85h-1q-9 -33 -27 -84z" />
    <glyph glyph-name="product" unicode="&#x220f;" horiz-adv-x="635" 
d="M108 -180v777h-88v62h611l-22 -62h-88v-777h-74v777h-266v-777h-73z" />
    <glyph glyph-name="summation" unicode="&#x2211;" horiz-adv-x="573" 
d="M23 -180l267 429l-251 410h513l-21 -62h-366l211 -347l-226 -368h394v-62h-521z" />
    <glyph glyph-name="minus" unicode="&#x2212;" 
d="M25 222v63h473v-63h-473z" />
    <glyph glyph-name="radical" unicode="&#x221a;" horiz-adv-x="657" 
d="M318 -122l-154 447l-88 -35l-22 59l159 62l106 -321q14 -44 37 -130h2q15 67 31 127l199 740h74l-262 -949h-82z" />
    <glyph glyph-name="infinity" unicode="&#x221e;" horiz-adv-x="768" 
d="M194 101q-74 0 -119 48t-45 117t45 117t119 48q56 0 99.5 -30t88.5 -85q46 55 90 85t102 30q74 0 119 -48t45 -117t-45 -117t-119 -48q-58 0 -102 30t-90 85q-47 -55 -90 -85t-98 -30zM199 168q40 0 73 25t72 73q-39 48 -72 73.5t-73 25.5q-42 0 -68 -27t-26 -72
q0 -44 26 -71t68 -27zM569 168q42 0 68 27t26 71q0 45 -26 72t-68 27q-40 0 -72.5 -25t-73.5 -74q40 -48 73 -73t73 -25z" />
    <glyph glyph-name="integral" unicode="&#x222b;" horiz-adv-x="304" 
d="M-39 -222l16 61q25 -11 52 -11q68 0 68 85v643q0 80 40 116t97 36q39 0 72 -15l-15 -61q-25 11 -52 11q-69 0 -69 -85v-643q0 -80 -39.5 -116t-96.5 -36q-39 0 -73 15z" />
    <glyph glyph-name="approxequal" unicode="&#x2248;" 
d="M68 295l-41 44q63 64 129 64q36 0 111 -30.5t102 -30.5q24 0 41.5 10t44.5 34l41 -44q-63 -64 -129 -64q-34 0 -110.5 30.5t-102.5 30.5q-24 0 -41.5 -10t-44.5 -34zM68 123l-41 44q64 65 129 65q36 0 111 -30.5t102 -30.5q24 0 42 10t44 34l41 -44q-64 -65 -129 -65
q-34 0 -110.5 30.5t-102.5 30.5q-24 0 -41.5 -10t-44.5 -34z" />
    <glyph glyph-name="notequal" unicode="&#x2260;" 
d="M121 34l50 103h-146v63h177l51 107h-228v62h259l48 98h73l-48 -98h141v-62h-172l-52 -107h224v-63h-255l-50 -103h-72z" />
    <glyph glyph-name="lessequal" unicode="&#x2264;" 
d="M48 270v68l418 156v-65l-341 -124v-2l341 -124v-66zM25 0v63h473v-63h-473z" />
    <glyph glyph-name="greaterequal" unicode="&#x2265;" 
d="M58 113v66l341 124v2l-341 124v65l418 -156v-68zM25 0v63h474v-63h-474z" />
    <glyph glyph-name="lozenge" unicode="&#x25ca;" horiz-adv-x="471" 
d="M199 0l-140 289l140 289h73l141 -289l-141 -289h-73zM236 63h2l107 226l-108 226h-2l-109 -226z" />
    <glyph glyph-name="fi.small" unicode="&#xf09c;" horiz-adv-x="624" 
d="M78 0v486h277l-21 -61h-184v-155h180v-60h-180v-210h-72zM474 0v486h72v-486h-72z" />
    <glyph glyph-name="fl.small" unicode="&#xf09d;" horiz-adv-x="741" 
d="M78 0v486h277l-21 -61h-184v-155h180v-60h-180v-210h-72zM474 0v486h72v-426h190v-60h-262z" />
    <glyph glyph-name="CR" horiz-adv-x="226" 
 />
    <glyph glyph-name="fi.cap" horiz-adv-x="692" 
d="M86 0v659h319l-24 -62h-221v-229h217v-61h-217v-307h-74zM533 0v659h74v-659h-74z" />
    <glyph glyph-name="fl.cap" horiz-adv-x="874" 
d="M86 0v659h319l-24 -62h-221v-229h217v-61h-217v-307h-74zM533 0v659h74v-597h245v-62h-319z" />
    <glyph glyph-name="germandbls.cap" horiz-adv-x="964" 
d="M53 40l31 58q67 -44 143 -44q58 0 95.5 26t37.5 81q0 43 -30 75.5t-72.5 55l-85 46.5t-72.5 64.5t-30 94.5q0 72 52 119.5t142 47.5q83 0 143 -30v-69q-64 36 -141 36q-50 0 -84.5 -24t-34.5 -73q0 -41 30 -72t72.5 -53.5l85 -47t72.5 -66.5t30 -99q0 -82 -57.5 -129
t-153.5 -47q-101 0 -173 50zM527 40l31 58q67 -44 143 -44q58 0 95.5 26t37.5 81q0 43 -30 75.5t-72.5 55l-85 46.5t-72.5 64.5t-30 94.5q0 72 52 119.5t142 47.5q83 0 143 -30v-69q-64 36 -141 36q-50 0 -84.5 -24t-34.5 -73q0 -41 30 -72t72.5 -53.5l85 -47t72.5 -66.5
t30 -99q0 -82 -57.5 -129t-153.5 -47q-101 0 -173 50z" />
    <glyph glyph-name="A.small" horiz-adv-x="454" 
d="M10 0l193 489h44l197 -489h-75l-45 119h-194l-45 -119h-75zM151 177h151l-48 125q-20 51 -27 77h-2q-13 -41 -28 -77z" />
    <glyph glyph-name="B.small" horiz-adv-x="442" 
d="M78 0v486h144q70 0 109 -37t39 -90q0 -73 -62 -103v-2q41 -9 66 -38.5t25 -75.5q0 -59 -42.5 -99.5t-133.5 -40.5h-145zM150 58h72q102 0 102 82q0 37 -24.5 57.5t-68.5 20.5h-81v-160zM150 275h65q39 0 60.5 22t21.5 56q0 32 -21.5 53.5t-62.5 21.5h-63v-153z" />
    <glyph glyph-name="C.small" horiz-adv-x="449" 
d="M403 85l22 -54q-68 -41 -153 -41q-101 0 -166 66.5t-65 178.5q0 115 69 187t177 72q70 0 121 -28v-64q-52 31 -114 31q-79 0 -129 -54.5t-50 -139.5q0 -86 46 -137t119 -51q68 0 123 34z" />
    <glyph glyph-name="D.small" horiz-adv-x="515" 
d="M78 0v486h132q129 0 196.5 -64t67.5 -176q0 -113 -70 -179.5t-195 -66.5h-131zM150 61h65q95 0 140 50.5t45 134.5q0 85 -47 132t-142 47h-61v-364z" />
    <glyph glyph-name="E.small" horiz-adv-x="405" 
d="M78 0v486h277l-21 -60h-184v-150h180v-59h-180v-157h198v-60h-270z" />
    <glyph glyph-name="F.small" horiz-adv-x="396" 
d="M78 0v486h277l-21 -61h-184v-155h180v-60h-180v-210h-72z" />
    <glyph glyph-name="G.small" horiz-adv-x="509" 
d="M441 231v-209q-69 -32 -154 -32q-108 0 -177 66t-69 179t70.5 186t186.5 73q73 0 128 -26v-65q-54 30 -118 30q-94 0 -143.5 -55.5t-49.5 -135.5q0 -88 49 -139.5t125 -51.5q47 0 80 12v168h72z" />
    <glyph glyph-name="H.small" horiz-adv-x="550" 
d="M78 0v486h72v-208h249v208h73v-486h-73v216h-249v-216h-72z" />
    <glyph glyph-name="I.small" horiz-adv-x="228" 
d="M78 0v486h72v-486h-72z" />
    <glyph glyph-name="J.small" horiz-adv-x="235" 
d="M-28 -108l15 57q15 -5 37 -5q39 0 54 23.5t15 68.5v450h72v-463q0 -140 -136 -140q-30 0 -57 9z" />
    <glyph glyph-name="K.small" horiz-adv-x="435" 
d="M78 0v486h72v-224h2l177 224h80l-195 -246l216 -240h-88l-190 214h-2v-214h-72z" />
    <glyph glyph-name="L.small" horiz-adv-x="345" 
d="M78 0v486h72v-426h190v-60h-262z" />
    <glyph glyph-name="M.small" horiz-adv-x="636" 
d="M78 0v486h65l117 -180q37 -55 58 -92h2q14 26 58 93l117 179h63v-486h-73v272q0 49 2 91h-2q-19 -35 -49 -79l-99 -152h-40l-98 152q-38 59 -49 79h-2q2 -23 2 -99v-264h-72z" />
    <glyph glyph-name="N.small" horiz-adv-x="582" 
d="M78 0v486h66l215 -274q42 -53 73 -100h2q-2 66 -2 96v278h72v-486h-64l-218 278q-46 59 -72 98h-2q2 -62 2 -93v-283h-72z" />
    <glyph glyph-name="O.small" horiz-adv-x="542" 
d="M271 -10q-102 0 -166 70.5t-64 181.5t64 181.5t166 70.5t166 -70.5t64 -181.5t-64 -181.5t-166 -70.5zM271 51q70 0 113 52.5t43 138.5t-43 138.5t-113 52.5t-113 -52.5t-43 -138.5t43 -138.5t113 -52.5z" />
    <glyph glyph-name="P.small" horiz-adv-x="408" 
d="M78 0v486h124q79 0 124.5 -41.5t45.5 -113.5q0 -73 -46.5 -116t-132.5 -43h-43v-172h-72zM150 232h48q51 0 76 26t25 71t-25 71t-75 26h-49v-194z" />
    <glyph glyph-name="Q.small" horiz-adv-x="542" 
d="M201 0q-74 22 -117 86.5t-43 155.5q0 111 64 181.5t166 70.5t166 -70.5t64 -181.5q0 -106 -57.5 -174.5t-150.5 -76.5q36 -47 114 -47q28 0 50 8l17 -57q-33 -12 -73 -12q-127 0 -200 117zM271 51q70 0 113 52.5t43 138.5t-43 138.5t-113 52.5t-113 -52.5t-43 -138.5
t43 -138.5t113 -52.5z" />
    <glyph glyph-name="R.small" horiz-adv-x="440" 
d="M78 0v486h130q86 0 127.5 -40.5t41.5 -99.5q0 -45 -24 -79t-70 -49v-2q23 -17 60 -76l87 -140h-80l-79 129q-33 54 -56 64h-65v-193h-72zM150 252h65q41 0 65 24t24 63t-24 63t-71 24h-59v-174z" />
    <glyph glyph-name="S.small" horiz-adv-x="377" 
d="M39 25l24 56q54 -30 109 -30q40 0 67.5 19t27.5 56q0 32 -22 54t-53.5 36t-63 29.5t-53.5 45.5t-22 74q0 56 40 92.5t109 36.5q64 0 114 -23v-66q-53 29 -110 29q-33 0 -56.5 -16t-23.5 -48q0 -29 22 -49.5t53.5 -33.5t63 -29.5t53.5 -48t22 -77.5q0 -67 -47.5 -104.5
t-119.5 -37.5q-73 0 -134 35z" />
    <glyph glyph-name="T.small" horiz-adv-x="396" 
d="M163 0v426h-149v60h382l-17 -60h-144v-426h-72z" />
    <glyph glyph-name="U.small" horiz-adv-x="534" 
d="M462 486v-310q0 -95 -53.5 -140.5t-143.5 -45.5q-88 0 -140 45.5t-52 140.5v310h72v-305q0 -129 123 -129q121 0 121 129v305h73z" />
    <glyph glyph-name="V.small" horiz-adv-x="469" 
d="M208 -2l-199 488h75l113 -287q19 -51 34 -96h2l36 96l115 287h76l-206 -488h-46z" />
    <glyph glyph-name="W.small" horiz-adv-x="660" 
d="M182 -2l-173 488h76l93 -274q24 -72 31 -100h2q18 59 34 99l58 165l-37 110h74l87 -273q27 -90 30 -102h2q12 44 32 103l88 272h72l-170 -488h-49l-68 200q-15 42 -29 89h-2q-9 -29 -32 -92l-70 -197h-49z" />
    <glyph glyph-name="X.small" horiz-adv-x="455" 
d="M9 0l179 247l-168 239h81l131 -187l132 187h79l-169 -240l173 -246h-80l-138 197l-141 -197h-79z" />
    <glyph glyph-name="Y.small" horiz-adv-x="408" 
d="M164 0v197l-155 289h78l77 -150l38 -76h2q18 38 37 74l81 152h77l-162 -289v-197h-73z" />
    <glyph glyph-name="Z.small" horiz-adv-x="432" 
d="M36 0l250 426h-220l-20 60h354l-250 -426h249v-60h-363z" />
    <glyph glyph-name="Agrave.small" horiz-adv-x="454" 
d="M10 0l193 489h44l197 -489h-75l-45 119h-194l-45 -119h-75zM151 177h151l-48 125q-20 51 -27 77h-2q-13 -41 -28 -77zM209 540l-86 147h87l58 -147h-59z" />
    <glyph glyph-name="Aacute.small" horiz-adv-x="454" 
d="M10 0l193 489h44l197 -489h-75l-45 119h-194l-45 -119h-75zM151 177h151l-48 125q-20 51 -27 77h-2q-13 -41 -28 -77zM181 540l58 147h86l-86 -147h-58z" />
    <glyph glyph-name="Acircumflex.small" horiz-adv-x="454" 
d="M10 0l193 489h44l197 -489h-75l-45 119h-194l-45 -119h-75zM151 177h151l-48 125q-20 51 -27 77h-2q-13 -41 -28 -77zM91 540l98 147h69l99 -147h-64l-69 100l-70 -100h-63z" />
    <glyph glyph-name="Atilde.small" horiz-adv-x="454" 
d="M10 0l193 489h44l197 -489h-75l-45 119h-194l-45 -119h-75zM151 177h151l-48 125q-20 51 -27 77h-2q-13 -41 -28 -77zM85 563v22q0 35 20 56t51 21q29 0 71.5 -24t56.5 -24q26 0 26 42h53v-22q0 -35 -20 -56t-51 -21q-29 0 -71 24t-57 24q-26 0 -26 -42h-53z" />
    <glyph glyph-name="Adieresis.small" horiz-adv-x="454" 
d="M10 0l193 489h44l197 -489h-75l-45 119h-194l-45 -119h-75zM151 177h151l-48 125q-20 51 -27 77h-2q-13 -41 -28 -77zM135 570q-18 0 -30.5 12.5t-12.5 30.5q0 19 12.5 31.5t30.5 12.5t31 -12.5t13 -31.5q0 -18 -13 -30.5t-31 -12.5zM313 570q-18 0 -31 12.5t-13 30.5
q0 19 13 31.5t31 12.5t30.5 -12.5t12.5 -31.5q0 -18 -12.5 -30.5t-30.5 -12.5z" />
    <glyph glyph-name="Amacron.small" horiz-adv-x="454" 
d="M10 0l193 489h44l197 -489h-75l-45 119h-194l-45 -119h-75zM151 177h151l-48 125q-20 51 -27 77h-2q-13 -41 -28 -77zM100 583v59h248v-59h-248z" />
    <glyph glyph-name="Abreve.small" horiz-adv-x="454" 
d="M296 675h53q-4 -56 -37.5 -89t-88.5 -33t-87.5 33t-36.5 89h53q12 -69 72 -69q62 0 72 69zM10 0l193 489h44l197 -489h-75l-45 119h-194l-45 -119h-75zM151 177h151l-48 125q-20 51 -27 77h-2q-13 -41 -28 -77z" />
    <glyph glyph-name="Aring.small" horiz-adv-x="454" 
d="M10 0l192 487q-36 5 -58 30t-22 63q0 43 28.5 69t74.5 26t74.5 -26t28.5 -69q0 -38 -22 -62.5t-59 -30.5l197 -487h-75l-45 119h-194l-45 -119h-75zM151 177h151l-48 125q-20 51 -27 77h-2q-13 -41 -28 -77zM225 526q22 0 35.5 14.5t13.5 39.5t-13.5 39.5t-35.5 14.5
t-35.5 -14.5t-13.5 -39.5t13.5 -39.5t35.5 -14.5z" />
    <glyph glyph-name="Aringacute.small" horiz-adv-x="454" 
d="M10 0l192 487q-36 5 -58 30t-22 63q0 40 25.5 65.5t65.5 28.5l48 124h86l-78 -131q27 -10 43 -33t16 -54q0 -38 -22 -62.5t-59 -30.5l197 -487h-75l-45 119h-194l-45 -119h-75zM151 177h151l-48 125q-20 51 -27 77h-2q-13 -41 -28 -77zM225 526q22 0 35.5 14.5t13.5 39.5
t-13.5 39.5t-35.5 14.5t-35.5 -14.5t-13.5 -39.5t13.5 -39.5t35.5 -14.5z" />
    <glyph glyph-name="Aogonek.small" horiz-adv-x="454" 
d="M151 177h151l-48 125q-20 51 -27 77h-2q-13 -41 -28 -77zM247 489l197 -489q-51 -23 -82.5 -55t-31.5 -66q0 -41 39 -41q12 0 38 7l10 -47q-35 -11 -61 -11q-42 0 -66 23t-24 57q0 32 18.5 62t36 45t45.5 34l-42 111h-194l-45 -119h-75l193 489h44z" />
    <glyph glyph-name="AE.small" horiz-adv-x="654" 
d="M10 0l263 486h331l-21 -60h-247l34 -150h209v-59h-195l36 -157h177v-60h-232l-27 119h-190l-62 -119h-76zM177 177h149l-28 122q-3 15 -9 42.5t-8 38.5h-2q-21 -51 -39 -82z" />
    <glyph glyph-name="AEacute.small" horiz-adv-x="654" 
d="M10 0l263 486h331l-21 -60h-247l34 -150h209v-59h-195l36 -157h177v-60h-232l-27 119h-190l-62 -119h-76zM177 177h149l-28 122q-3 15 -9 42.5t-8 38.5h-2q-21 -51 -39 -82zM341 540l58 147h86l-86 -147h-58z" />
    <glyph glyph-name="Cacute.small" horiz-adv-x="449" 
d="M403 85l22 -54q-68 -41 -153 -41q-101 0 -166 66.5t-65 178.5q0 115 69 187t177 72q70 0 121 -28v-64q-52 31 -114 31q-79 0 -129 -54.5t-50 -139.5q0 -86 46 -137t119 -51q68 0 123 34zM234 540l58 147h86l-86 -147h-58z" />
    <glyph glyph-name="Ccircumflex.small" horiz-adv-x="449" 
d="M403 85l22 -54q-68 -41 -153 -41q-101 0 -166 66.5t-65 178.5q0 115 69 187t177 72q70 0 121 -28v-64q-52 31 -114 31q-79 0 -129 -54.5t-50 -139.5q0 -86 46 -137t119 -51q68 0 123 34zM127 540l98 147h69l99 -147h-64l-69 100l-70 -100h-63z" />
    <glyph glyph-name="Ccaron.small" horiz-adv-x="449" 
d="M403 85l22 -54q-68 -41 -153 -41q-101 0 -166 66.5t-65 178.5q0 115 69 187t177 72q70 0 121 -28v-64q-52 31 -114 31q-79 0 -129 -54.5t-50 -139.5q0 -86 46 -137t119 -51q68 0 123 34zM226 541l-98 147h64l70 -100l69 100h63l-99 -147h-69z" />
    <glyph glyph-name="Cdotaccent.small" horiz-adv-x="449" 
d="M403 85l22 -54q-68 -41 -153 -41q-101 0 -166 66.5t-65 178.5q0 115 69 187t177 72q70 0 121 -28v-64q-52 31 -114 31q-79 0 -129 -54.5t-50 -139.5q0 -86 46 -137t119 -51q68 0 123 34zM260 589q-21 0 -34.5 14t-13.5 35t13.5 35.5t34.5 14.5q22 0 36 -14t14 -36
q0 -21 -14 -35t-36 -14z" />
    <glyph glyph-name="Ccedilla.small" horiz-adv-x="449" 
d="M166 -200l13 43q26 -10 49 -10t38.5 10t15.5 29q0 13 -7 21.5t-21 11.5t-25.5 4t-31.5 1l26 85q-82 15 -132 78.5t-50 161.5q0 115 69 187t177 72q70 0 121 -28v-64q-52 31 -114 31q-79 0 -129 -54.5t-50 -139.5q0 -86 46 -137t119 -51q68 0 123 34l22 -54
q-63 -38 -144 -41l-14 -44q81 -8 81 -72q0 -40 -31.5 -63t-85.5 -23q-37 0 -65 12z" />
    <glyph glyph-name="Dcaron.small" horiz-adv-x="515" 
d="M78 0v486h132q129 0 196.5 -64t67.5 -176q0 -113 -70 -179.5t-195 -66.5h-131zM150 61h65q95 0 140 50.5t45 134.5q0 85 -47 132t-142 47h-61v-364zM206 541l-98 147h64l70 -100l69 100h63l-99 -147h-69z" />
    <glyph glyph-name="Dcroat.small" horiz-adv-x="515" 
d="M82 0v218h-64v57h64v211h132q129 0 196.5 -64t67.5 -176q0 -113 -70 -179.5t-195 -66.5h-131zM154 61h65q95 0 140 50.5t45 134.5q0 85 -47 132t-142 47h-61v-150h123v-57h-123v-157z" />
    <glyph glyph-name="Egrave.small" horiz-adv-x="405" 
d="M78 0v486h277l-21 -60h-184v-150h180v-59h-180v-157h198v-60h-270zM196 540l-86 147h87l58 -147h-59z" />
    <glyph glyph-name="Eacute.small" horiz-adv-x="405" 
d="M78 0v486h277l-21 -60h-184v-150h180v-59h-180v-157h198v-60h-270zM170 540l58 147h86l-86 -147h-58z" />
    <glyph glyph-name="Ecircumflex.small" horiz-adv-x="405" 
d="M78 0v486h277l-21 -60h-184v-150h180v-59h-180v-157h198v-60h-270zM79 540l98 147h69l99 -147h-64l-69 100l-70 -100h-63z" />
    <glyph glyph-name="Ecaron.small" horiz-adv-x="405" 
d="M78 0v486h277l-21 -60h-184v-150h180v-59h-180v-157h198v-60h-270zM177 541l-98 147h64l70 -100l69 100h63l-99 -147h-69z" />
    <glyph glyph-name="Edieresis.small" horiz-adv-x="405" 
d="M78 0v486h277l-21 -60h-184v-150h180v-59h-180v-157h198v-60h-270zM124 570q-18 0 -30.5 12.5t-12.5 30.5q0 19 12.5 31.5t30.5 12.5t31 -12.5t13 -31.5q0 -18 -13 -30.5t-31 -12.5zM302 570q-18 0 -31 12.5t-13 30.5q0 19 13 31.5t31 12.5t30.5 -12.5t12.5 -31.5
q0 -18 -12.5 -30.5t-30.5 -12.5z" />
    <glyph glyph-name="Emacron.small" horiz-adv-x="405" 
d="M78 0v486h277l-21 -60h-184v-150h180v-59h-180v-157h198v-60h-270zM88 583v59h248v-59h-248z" />
    <glyph glyph-name="Ebreve.small" horiz-adv-x="405" 
d="M78 0v486h277l-21 -60h-184v-150h180v-59h-180v-157h198v-60h-270zM284 675h53q-4 -56 -37.5 -89t-88.5 -33t-87.5 33t-36.5 89h53q12 -69 72 -69q62 0 72 69z" />
    <glyph glyph-name="Edotaccent.small" horiz-adv-x="405" 
d="M78 0v486h277l-21 -60h-184v-150h180v-59h-180v-157h198v-60h-270zM211 589q-21 0 -34.5 14t-13.5 35t13.5 35.5t34.5 14.5q22 0 36 -14t14 -36q0 -21 -14 -35t-36 -14z" />
    <glyph glyph-name="Eogonek.small" horiz-adv-x="405" 
d="M78 0v486h277l-21 -60h-184v-150h180v-59h-180v-157h198v-60h-21q-106 -56 -106 -121q0 -41 39 -41q12 0 38 7l10 -47q-35 -11 -61 -11q-42 0 -66 23t-24 57q0 72 89 133h-168z" />
    <glyph glyph-name="Gcircumflex.small" horiz-adv-x="509" 
d="M441 231v-209q-69 -32 -154 -32q-108 0 -177 66t-69 179t70.5 186t186.5 73q73 0 128 -26v-65q-54 30 -118 30q-94 0 -143.5 -55.5t-49.5 -135.5q0 -88 49 -139.5t125 -51.5q47 0 80 12v168h72zM134 540l98 147h69l99 -147h-64l-69 100l-70 -100h-63z" />
    <glyph glyph-name="Gbreve.small" horiz-adv-x="509" 
d="M340 675h53q-4 -56 -37.5 -89t-88.5 -33t-87.5 33t-36.5 89h53q12 -69 72 -69q62 0 72 69zM441 231v-209q-69 -32 -154 -32q-108 0 -177 66t-69 179t70.5 186t186.5 73q73 0 128 -26v-65q-54 30 -118 30q-94 0 -143.5 -55.5t-49.5 -135.5q0 -88 49 -139.5t125 -51.5
q47 0 80 12v168h72z" />
    <glyph glyph-name="Gdotaccent.small" horiz-adv-x="509" 
d="M441 231v-209q-69 -32 -154 -32q-108 0 -177 66t-69 179t70.5 186t186.5 73q73 0 128 -26v-65q-54 30 -118 30q-94 0 -143.5 -55.5t-49.5 -135.5q0 -88 49 -139.5t125 -51.5q47 0 80 12v168h72zM266 589q-21 0 -34.5 14t-13.5 35t13.5 35.5t34.5 14.5q22 0 36 -14t14 -36
q0 -21 -14 -35t-36 -14z" />
    <glyph glyph-name="Gcommaaccent.small" horiz-adv-x="509" 
d="M441 231v-209q-69 -32 -154 -32q-108 0 -177 66t-69 179t70.5 186t186.5 73q73 0 128 -26v-65q-54 30 -118 30q-94 0 -143.5 -55.5t-49.5 -135.5q0 -88 49 -139.5t125 -51.5q47 0 80 12v168h72zM207 -237l-20 48q71 20 71 71q0 29 -24 66h67q24 -30 24 -73
q0 -86 -118 -112z" />
    <glyph glyph-name="Hcircumflex.small" horiz-adv-x="550" 
d="M78 0v486h72v-208h249v208h73v-486h-73v216h-249v-216h-72zM142 540l98 147h69l99 -147h-64l-69 100l-70 -100h-63z" />
    <glyph glyph-name="Hbar.small" horiz-adv-x="550" 
d="M78 0v351h-48v55h48v80h72v-80h249v80h73v-80h48v-55h-48v-351h-73v216h-249v-216h-72zM150 278h249v73h-249v-73z" />
    <glyph glyph-name="Igrave.small" horiz-adv-x="228" 
d="M78 0v486h72v-486h-72zM99 540l-86 147h87l58 -147h-59z" />
    <glyph glyph-name="Iacute.small" horiz-adv-x="228" 
d="M78 0v486h72v-486h-72zM70 540l58 147h86l-86 -147h-58z" />
    <glyph glyph-name="Icircumflex.small" horiz-adv-x="228" 
d="M78 0v486h72v-486h-72zM-19 540l98 147h69l99 -147h-64l-69 100l-70 -100h-63z" />
    <glyph glyph-name="Itilde.small" horiz-adv-x="228" 
d="M78 0v486h72v-486h-72zM-25 563v22q0 35 20 56t51 21q30 0 72 -24t56 -24q26 0 26 42h53v-22q0 -35 -20 -56t-51 -21q-29 0 -71 24t-57 24q-26 0 -26 -42h-53z" />
    <glyph glyph-name="Idieresis.small" horiz-adv-x="228" 
d="M78 0v486h72v-486h-72zM25 570q-18 0 -30.5 12.5t-12.5 30.5q0 19 12.5 31.5t30.5 12.5t31 -12.5t13 -31.5q0 -18 -13 -30.5t-31 -12.5zM203 570q-18 0 -31 12.5t-13 30.5q0 19 13 31.5t31 12.5t30.5 -12.5t12.5 -31.5q0 -18 -12.5 -30.5t-30.5 -12.5z" />
    <glyph glyph-name="Imacron.small" horiz-adv-x="228" 
d="M78 0v486h72v-486h-72zM-10 583v59h248v-59h-248z" />
    <glyph glyph-name="Ibreve.small" horiz-adv-x="228" 
d="M78 0v486h72v-486h-72zM186 675h53q-4 -56 -37.5 -89t-88.5 -33t-87.5 33t-36.5 89h53q12 -69 72 -69q62 0 72 69z" />
    <glyph glyph-name="Idotaccent.small" horiz-adv-x="228" 
d="M78 0v486h72v-486h-72zM115 589q-21 0 -34.5 14t-13.5 35t13.5 35.5t34.5 14.5q22 0 36 -14t14 -36q0 -21 -14 -35t-36 -14z" />
    <glyph glyph-name="Iogonek.small" horiz-adv-x="228" 
d="M78 6v480h72v-486q-35 -23 -55.5 -54t-20.5 -61q0 -47 40 -47q13 0 37 7l10 -47q-35 -11 -61 -11q-44 0 -67.5 24t-23.5 63q0 69 69 132z" />
    <glyph glyph-name="dotlessi.small" horiz-adv-x="228" 
d="M78 0v486h72v-486h-72z" />
    <glyph glyph-name="IJ.small" horiz-adv-x="464" 
d="M78 0v486h72v-486h-72zM200 -108l15 57q15 -5 37 -5q39 0 54 23.5t15 68.5v450h72v-463q0 -140 -136 -140q-30 0 -57 9z" />
    <glyph glyph-name="Jcircumflex.small" horiz-adv-x="235" 
d="M-28 -108l15 57q15 -5 37 -5q39 0 54 23.5t15 68.5v450h72v-463q0 -140 -136 -140q-30 0 -57 9zM-8 540l98 147h69l99 -147h-64l-69 100l-70 -100h-63z" />
    <glyph glyph-name="Kcommaaccent.small" horiz-adv-x="435" 
d="M78 0v486h72v-224h2l177 224h80l-195 -246l216 -240h-88l-190 214h-2v-214h-72zM173 -237l-20 48q71 20 71 71q0 29 -24 66h67q24 -30 24 -73q0 -86 -118 -112z" />
    <glyph glyph-name="Lacute.small" horiz-adv-x="345" 
d="M78 0v486h72v-426h190v-60h-262zM80 540l58 147h86l-86 -147h-58z" />
    <glyph glyph-name="Lcaron.small" horiz-adv-x="353" 
d="M78 0v486h72v-426h190v-60h-262zM249 342l-30 48q44 23 44 71q0 36 -23 74h67q24 -31 24 -74q0 -80 -82 -119z" />
    <glyph glyph-name="Lcommaaccent.small" horiz-adv-x="345" 
d="M78 0v486h72v-426h190v-60h-262zM136 -237l-20 48q71 20 71 71q0 29 -24 66h67q24 -30 24 -73q0 -86 -118 -112z" />
    <glyph glyph-name="Lslash.small" horiz-adv-x="345" 
d="M31 158v68l47 28v232h72v-190l109 65v-69l-109 -64v-168h190v-60h-262v185z" />
    <glyph glyph-name="Ldot.small" horiz-adv-x="345" 
d="M78 0v486h72v-426h190v-60h-262zM284 210q-19 0 -33 15t-14 35t14 34.5t33 14.5q20 0 34 -14.5t14 -34.5t-14 -35t-34 -15z" />
    <glyph glyph-name="Nacute.small" horiz-adv-x="582" 
d="M78 0v486h66l215 -274q42 -53 73 -100h2q-2 66 -2 96v278h72v-486h-64l-218 278q-46 59 -72 98h-2q2 -62 2 -93v-283h-72zM250 540l58 147h86l-86 -147h-58z" />
    <glyph glyph-name="Ncaron.small" horiz-adv-x="582" 
d="M78 0v486h66l215 -274q42 -53 73 -100h2q-2 66 -2 96v278h72v-486h-64l-218 278q-46 59 -72 98h-2q2 -62 2 -93v-283h-72zM257 541l-98 147h64l70 -100l69 100h63l-99 -147h-69z" />
    <glyph glyph-name="Ntilde.small" horiz-adv-x="582" 
d="M78 0v486h66l215 -274q42 -53 73 -100h2q-2 66 -2 96v278h72v-486h-64l-218 278q-46 59 -72 98h-2q2 -62 2 -93v-283h-72zM154 563v22q0 35 20 56t51 21q29 0 71 -24t57 -24q26 0 26 42h53v-22q0 -35 -20 -56t-51 -21q-29 0 -71 24t-57 24q-26 0 -26 -42h-53z" />
    <glyph glyph-name="Ncommaaccent.small" horiz-adv-x="582" 
d="M78 0v486h66l215 -274q42 -53 73 -100h2q-2 66 -2 96v278h72v-486h-64l-218 278q-46 59 -72 98h-2q2 -62 2 -93v-283h-72zM228 -237l-20 48q71 20 71 71q0 29 -24 66h67q24 -30 24 -73q0 -86 -118 -112z" />
    <glyph glyph-name="Ograve.small" horiz-adv-x="542" 
d="M271 -10q-102 0 -166 70.5t-64 181.5t64 181.5t166 70.5t166 -70.5t64 -181.5t-64 -181.5t-166 -70.5zM271 51q70 0 113 52.5t43 138.5t-43 138.5t-113 52.5t-113 -52.5t-43 -138.5t43 -138.5t113 -52.5zM255 540l-86 147h87l58 -147h-59z" />
    <glyph glyph-name="Oacute.small" horiz-adv-x="542" 
d="M271 -10q-102 0 -166 70.5t-64 181.5t64 181.5t166 70.5t166 -70.5t64 -181.5t-64 -181.5t-166 -70.5zM271 51q70 0 113 52.5t43 138.5t-43 138.5t-113 52.5t-113 -52.5t-43 -138.5t43 -138.5t113 -52.5zM239 540l58 147h86l-86 -147h-58z" />
    <glyph glyph-name="Ocircumflex.small" horiz-adv-x="542" 
d="M271 -10q-102 0 -166 70.5t-64 181.5t64 181.5t166 70.5t166 -70.5t64 -181.5t-64 -181.5t-166 -70.5zM271 51q70 0 113 52.5t43 138.5t-43 138.5t-113 52.5t-113 -52.5t-43 -138.5t43 -138.5t113 -52.5zM139 540l98 147h69l99 -147h-64l-69 100l-70 -100h-63z" />
    <glyph glyph-name="Otilde.small" horiz-adv-x="542" 
d="M271 -10q-102 0 -166 70.5t-64 181.5t64 181.5t166 70.5t166 -70.5t64 -181.5t-64 -181.5t-166 -70.5zM271 51q70 0 113 52.5t43 138.5t-43 138.5t-113 52.5t-113 -52.5t-43 -138.5t43 -138.5t113 -52.5zM133 563v22q0 35 20 56t51 21q30 0 72 -24t56 -24q26 0 26 42h53
v-22q0 -35 -20 -56t-51 -21q-29 0 -71 24t-57 24q-26 0 -26 -42h-53z" />
    <glyph glyph-name="Odieresis.small" horiz-adv-x="542" 
d="M271 -10q-102 0 -166 70.5t-64 181.5t64 181.5t166 70.5t166 -70.5t64 -181.5t-64 -181.5t-166 -70.5zM271 51q70 0 113 52.5t43 138.5t-43 138.5t-113 52.5t-113 -52.5t-43 -138.5t43 -138.5t113 -52.5zM183 570q-18 0 -30.5 12.5t-12.5 30.5q0 19 12.5 31.5t30.5 12.5
t31 -12.5t13 -31.5q0 -18 -13 -30.5t-31 -12.5zM361 570q-18 0 -31 12.5t-13 30.5q0 19 13 31.5t31 12.5t30.5 -12.5t12.5 -31.5q0 -18 -12.5 -30.5t-30.5 -12.5z" />
    <glyph glyph-name="Omacron.small" horiz-adv-x="542" 
d="M271 -10q-102 0 -166 70.5t-64 181.5t64 181.5t166 70.5t166 -70.5t64 -181.5t-64 -181.5t-166 -70.5zM271 51q70 0 113 52.5t43 138.5t-43 138.5t-113 52.5t-113 -52.5t-43 -138.5t43 -138.5t113 -52.5zM148 583v59h248v-59h-248z" />
    <glyph glyph-name="Obreve.small" horiz-adv-x="542" 
d="M271 -10q-102 0 -166 70.5t-64 181.5t64 181.5t166 70.5t166 -70.5t64 -181.5t-64 -181.5t-166 -70.5zM271 51q70 0 113 52.5t43 138.5t-43 138.5t-113 52.5t-113 -52.5t-43 -138.5t43 -138.5t113 -52.5zM344 675h53q-4 -56 -37.5 -89t-88.5 -33t-87.5 33t-36.5 89h53
q12 -69 72 -69q62 0 72 69z" />
    <glyph glyph-name="Ohungarumlaut.small" horiz-adv-x="542" 
d="M271 -10q-102 0 -166 70.5t-64 181.5t64 181.5t166 70.5t166 -70.5t64 -181.5t-64 -181.5t-166 -70.5zM271 51q70 0 113 52.5t43 138.5t-43 138.5t-113 52.5t-113 -52.5t-43 -138.5t43 -138.5t113 -52.5zM166 540l58 147h86l-86 -147h-58zM326 540l58 147h86l-85 -147
h-59z" />
    <glyph glyph-name="Oslash.small" horiz-adv-x="542" 
d="M99 -22l-42 31l44 57q-60 69 -60 176q0 111 64 181.5t166 70.5q69 0 125 -37l38 51l43 -32l-40 -53q64 -69 64 -181q0 -111 -64 -181.5t-166 -70.5q-75 0 -131 42zM178 83q38 -33 93 -33q70 0 113.5 53t43.5 139q0 76 -34 125zM144 123l215 283q-39 28 -88 28
q-70 0 -113.5 -53t-43.5 -139q0 -70 30 -119z" />
    <glyph glyph-name="Oslashacute.small" horiz-adv-x="542" 
d="M99 -22l-42 31l44 57q-60 69 -60 176q0 111 64 181.5t166 70.5q69 0 125 -37l38 51l43 -32l-40 -53q64 -69 64 -181q0 -111 -64 -181.5t-166 -70.5q-75 0 -131 42zM178 83q38 -33 93 -33q70 0 113.5 53t43.5 139q0 76 -34 125zM144 123l215 283q-39 28 -88 28
q-70 0 -113.5 -53t-43.5 -139q0 -70 30 -119zM241 540l58 147h86l-86 -147h-58z" />
    <glyph glyph-name="OE.small" horiz-adv-x="690" 
d="M633 0h-187q-36 0 -90 -3t-73 -3q-110 0 -176 70t-66 178q0 109 67.5 179.5t181.5 70.5q13 0 63.5 -3t79.5 -3h207l-21 -60h-184v-150h180v-59h-180v-157h198v-60zM363 59v367q-47 7 -70 7q-84 0 -131 -53.5t-47 -137.5q0 -83 45.5 -136t125.5 -53q35 0 77 6z" />
    <glyph glyph-name="Racute.small" horiz-adv-x="440" 
d="M78 0v486h130q86 0 127.5 -40.5t41.5 -99.5q0 -45 -24 -79t-70 -49v-2q23 -17 60 -76l87 -140h-80l-79 129q-33 54 -56 64h-65v-193h-72zM150 252h65q41 0 65 24t24 63t-24 63t-71 24h-59v-174zM170 540l58 147h86l-86 -147h-58z" />
    <glyph glyph-name="Rcaron.small" horiz-adv-x="440" 
d="M78 0v486h130q86 0 127.5 -40.5t41.5 -99.5q0 -45 -24 -79t-70 -49v-2q23 -17 60 -76l87 -140h-80l-79 129q-33 54 -56 64h-65v-193h-72zM150 252h65q41 0 65 24t24 63t-24 63t-71 24h-59v-174zM177 541l-98 147h64l70 -100l69 100h63l-99 -147h-69z" />
    <glyph glyph-name="Rcommaaccent.small" horiz-adv-x="440" 
d="M78 0v486h130q86 0 127.5 -40.5t41.5 -99.5q0 -45 -24 -79t-70 -49v-2q23 -17 60 -76l87 -140h-80l-79 129q-33 54 -56 64h-65v-193h-72zM150 252h65q41 0 65 24t24 63t-24 63t-71 24h-59v-174zM172 -237l-20 48q71 20 71 71q0 29 -24 66h67q24 -30 24 -73
q0 -86 -118 -112z" />
    <glyph glyph-name="germandbls.small" horiz-adv-x="752" 
d="M39 25l24 56q54 -30 109 -30q40 0 67.5 19t27.5 56q0 32 -22 54t-53.5 36t-63 29.5t-53.5 45.5t-22 74q0 56 40 92.5t109 36.5q64 0 114 -23v-66q-53 29 -110 29q-33 0 -56.5 -16t-23.5 -48q0 -29 22 -49.5t53.5 -33.5t63 -29.5t53.5 -48t22 -77.5q0 -67 -47.5 -104.5
t-119.5 -37.5q-73 0 -134 35zM414 25l24 56q54 -30 109 -30q40 0 67.5 19t27.5 56q0 32 -22 54t-53.5 36t-63 29.5t-53.5 45.5t-22 74q0 56 40 92.5t109 36.5q64 0 114 -23v-66q-53 29 -110 29q-33 0 -56.5 -16t-23.5 -48q0 -29 22 -49.5t53.5 -33.5t63 -29.5t53.5 -48
t22 -77.5q0 -67 -47.5 -104.5t-119.5 -37.5q-73 0 -134 35z" />
    <glyph glyph-name="Sacute.small" horiz-adv-x="377" 
d="M39 25l24 56q54 -30 109 -30q40 0 67.5 19t27.5 56q0 32 -22 54t-53.5 36t-63 29.5t-53.5 45.5t-22 74q0 56 40 92.5t109 36.5q64 0 114 -23v-66q-53 29 -110 29q-33 0 -56.5 -16t-23.5 -48q0 -29 22 -49.5t53.5 -33.5t63 -29.5t53.5 -48t22 -77.5q0 -67 -47.5 -104.5
t-119.5 -37.5q-73 0 -134 35zM154 540l58 147h86l-86 -147h-58z" />
    <glyph glyph-name="Scircumflex.small" horiz-adv-x="377" 
d="M39 25l24 56q54 -30 109 -30q40 0 67.5 19t27.5 56q0 32 -22 54t-53.5 36t-63 29.5t-53.5 45.5t-22 74q0 56 40 92.5t109 36.5q64 0 114 -23v-66q-53 29 -110 29q-33 0 -56.5 -16t-23.5 -48q0 -29 22 -49.5t53.5 -33.5t63 -29.5t53.5 -48t22 -77.5q0 -67 -47.5 -104.5
t-119.5 -37.5q-73 0 -134 35zM56 540l98 147h69l99 -147h-64l-69 100l-70 -100h-63z" />
    <glyph glyph-name="Scaron.small" horiz-adv-x="377" 
d="M39 25l24 56q54 -30 109 -30q40 0 67.5 19t27.5 56q0 32 -22 54t-53.5 36t-63 29.5t-53.5 45.5t-22 74q0 56 40 92.5t109 36.5q64 0 114 -23v-66q-53 29 -110 29q-33 0 -56.5 -16t-23.5 -48q0 -29 22 -49.5t53.5 -33.5t63 -29.5t53.5 -48t22 -77.5q0 -67 -47.5 -104.5
t-119.5 -37.5q-73 0 -134 35zM159 541l-98 147h64l70 -100l69 100h63l-99 -147h-69z" />
    <glyph glyph-name="Scedilla.small" horiz-adv-x="377" 
d="M85 -200l14 43q24 -10 48 -10q23 0 39 10t16 29q0 13 -7 21.5t-21.5 11.5t-26.5 4t-31 1l25 82q-55 5 -102 33l24 56q54 -30 109 -30q40 0 67.5 19t27.5 56q0 32 -22 54t-53.5 36t-63 29.5t-53.5 45.5t-22 74q0 56 40 92.5t109 36.5q64 0 114 -23v-66q-53 29 -110 29
q-33 0 -56.5 -16t-23.5 -48q0 -29 22 -49.5t53.5 -33.5t63 -29.5t53.5 -48t22 -77.5q0 -61 -38.5 -97t-100.5 -43l-15 -46q82 -8 82 -72q0 -40 -32 -63t-86 -23q-35 0 -65 12z" />
    <glyph glyph-name="Scommaaccent.small" horiz-adv-x="377" 
d="M39 25l24 56q54 -30 109 -30q40 0 67.5 19t27.5 56q0 32 -22 54t-53.5 36t-63 29.5t-53.5 45.5t-22 74q0 56 40 92.5t109 36.5q64 0 114 -23v-66q-53 29 -110 29q-33 0 -56.5 -16t-23.5 -48q0 -29 22 -49.5t53.5 -33.5t63 -29.5t53.5 -48t22 -77.5q0 -67 -47.5 -104.5
t-119.5 -37.5q-73 0 -134 35zM125 -237l-20 48q71 20 71 71q0 29 -24 66h67q24 -30 24 -73q0 -86 -118 -112z" />
    <glyph glyph-name="Tcaron.small" horiz-adv-x="396" 
d="M163 0v426h-149v60h382l-17 -60h-144v-426h-72zM164 541l-98 147h64l70 -100l69 100h63l-99 -147h-69z" />
    <glyph glyph-name="Tcommaaccent.small" horiz-adv-x="396" 
d="M163 0v426h-149v60h382l-17 -60h-144v-426h-72zM137 -237l-20 48q71 20 71 71q0 29 -24 66h67q24 -30 24 -73q0 -86 -118 -112z" />
    <glyph glyph-name="Tbar.small" horiz-adv-x="396" 
d="M163 0v209h-86v56h86v161h-149v60h382l-17 -60h-144v-161h86v-56h-86v-209h-72z" />
    <glyph glyph-name="Ugrave.small" horiz-adv-x="534" 
d="M462 486v-310q0 -95 -53.5 -140.5t-143.5 -45.5q-88 0 -140 45.5t-52 140.5v310h72v-305q0 -129 123 -129q121 0 121 129v305h73zM251 540l-86 147h87l58 -147h-59z" />
    <glyph glyph-name="Uacute.small" horiz-adv-x="534" 
d="M462 486v-310q0 -95 -53.5 -140.5t-143.5 -45.5q-88 0 -140 45.5t-52 140.5v310h72v-305q0 -129 123 -129q121 0 121 129v305h73zM228 540l58 147h86l-86 -147h-58z" />
    <glyph glyph-name="Ucircumflex.small" horiz-adv-x="534" 
d="M462 486v-310q0 -95 -53.5 -140.5t-143.5 -45.5q-88 0 -140 45.5t-52 140.5v310h72v-305q0 -129 123 -129q121 0 121 129v305h73zM136 540l98 147h69l99 -147h-64l-69 100l-70 -100h-63z" />
    <glyph glyph-name="Utilde.small" horiz-adv-x="534" 
d="M462 486v-310q0 -95 -53.5 -140.5t-143.5 -45.5q-88 0 -140 45.5t-52 140.5v310h72v-305q0 -129 123 -129q121 0 121 129v305h73zM130 563v22q0 35 20 56t51 21q29 0 71 -24t57 -24q26 0 26 42h53v-22q0 -35 -20 -56t-51 -21q-29 0 -71 24t-57 24q-26 0 -26 -42h-53z" />
    <glyph glyph-name="Udieresis.small" horiz-adv-x="534" 
d="M462 486v-310q0 -95 -53.5 -140.5t-143.5 -45.5q-88 0 -140 45.5t-52 140.5v310h72v-305q0 -129 123 -129q121 0 121 129v305h73zM180 570q-18 0 -30.5 12.5t-12.5 30.5q0 19 12.5 31.5t30.5 12.5t31 -12.5t13 -31.5q0 -18 -13 -30.5t-31 -12.5zM358 570q-18 0 -31 12.5
t-13 30.5q0 19 13 31.5t31 12.5t30.5 -12.5t12.5 -31.5q0 -18 -12.5 -30.5t-30.5 -12.5z" />
    <glyph glyph-name="Umacron.small" horiz-adv-x="534" 
d="M462 486v-310q0 -95 -53.5 -140.5t-143.5 -45.5q-88 0 -140 45.5t-52 140.5v310h72v-305q0 -129 123 -129q121 0 121 129v305h73zM144 583v59h248v-59h-248z" />
    <glyph glyph-name="Ubreve.small" horiz-adv-x="534" 
d="M462 486v-310q0 -95 -53.5 -140.5t-143.5 -45.5q-88 0 -140 45.5t-52 140.5v310h72v-305q0 -129 123 -129q121 0 121 129v305h73zM340 675h53q-4 -56 -37.5 -89t-88.5 -33t-87.5 33t-36.5 89h53q12 -69 72 -69q62 0 72 69z" />
    <glyph glyph-name="Uring.small" horiz-adv-x="534" 
d="M462 486v-310q0 -95 -53.5 -140.5t-143.5 -45.5q-88 0 -140 45.5t-52 140.5v310h72v-305q0 -129 123 -129q121 0 121 129v305h73zM268 533q-46 0 -74.5 26t-28.5 69q0 42 29 68.5t74 26.5t74 -26.5t29 -68.5q0 -43 -28.5 -69t-74.5 -26zM268 573q23 0 36 15t13 40
t-13.5 39.5t-35.5 14.5t-35.5 -14.5t-13.5 -39.5t13 -40t36 -15z" />
    <glyph glyph-name="Uhungarumlaut.small" horiz-adv-x="534" 
d="M462 486v-310q0 -95 -53.5 -140.5t-143.5 -45.5q-88 0 -140 45.5t-52 140.5v310h72v-305q0 -129 123 -129q121 0 121 129v305h73zM154 540l58 147h86l-86 -147h-58zM314 540l58 147h86l-85 -147h-59z" />
    <glyph glyph-name="Uogonek.small" horiz-adv-x="534" 
d="M265 -12v2q-88 0 -140 45.5t-52 140.5v310h72v-305q0 -129 123 -129q121 0 121 129v305h73v-310q0 -88 -52 -137q-10 -10 -39 -29l-52.5 -35t-43 -42.5t-19.5 -53.5q0 -41 38 -41q14 0 38 7l11 -47q-36 -11 -62 -11q-42 0 -66 23t-24 57q0 70 74 121z" />
    <glyph glyph-name="Wgrave.small" horiz-adv-x="660" 
d="M182 -2l-173 488h76l93 -274q24 -72 31 -100h2q18 59 34 99l58 165l-37 110h74l87 -273q27 -90 30 -102h2q12 44 32 103l88 272h72l-170 -488h-49l-68 200q-15 42 -29 89h-2q-9 -29 -32 -92l-70 -197h-49zM319 540l-86 147h87l58 -147h-59z" />
    <glyph glyph-name="Wacute.small" horiz-adv-x="660" 
d="M182 -2l-173 488h76l93 -274q24 -72 31 -100h2q18 59 34 99l58 165l-37 110h74l87 -273q27 -90 30 -102h2q12 44 32 103l88 272h72l-170 -488h-49l-68 200q-15 42 -29 89h-2q-9 -29 -32 -92l-70 -197h-49zM292 540l58 147h86l-86 -147h-58z" />
    <glyph glyph-name="Wcircumflex.small" horiz-adv-x="660" 
d="M182 -2l-173 488h76l93 -274q24 -72 31 -100h2q18 59 34 99l58 165l-37 110h74l87 -273q27 -90 30 -102h2q12 44 32 103l88 272h72l-170 -488h-49l-68 200q-15 42 -29 89h-2q-9 -29 -32 -92l-70 -197h-49zM202 540l98 147h69l99 -147h-64l-69 100l-70 -100h-63z" />
    <glyph glyph-name="Wdieresis.small" horiz-adv-x="660" 
d="M182 -2l-173 488h76l93 -274q24 -72 31 -100h2q18 59 34 99l58 165l-37 110h74l87 -273q27 -90 30 -102h2q12 44 32 103l88 272h72l-170 -488h-49l-68 200q-15 42 -29 89h-2q-9 -29 -32 -92l-70 -197h-49zM246 570q-18 0 -30.5 12.5t-12.5 30.5q0 19 12.5 31.5t30.5 12.5
t31 -12.5t13 -31.5q0 -18 -13 -30.5t-31 -12.5zM424 570q-18 0 -31 12.5t-13 30.5q0 19 13 31.5t31 12.5t30.5 -12.5t12.5 -31.5q0 -18 -12.5 -30.5t-30.5 -12.5z" />
    <glyph glyph-name="Ygrave.small" horiz-adv-x="408" 
d="M164 0v197l-155 289h78l77 -150l38 -76h2q18 38 37 74l81 152h77l-162 -289v-197h-73zM189 540l-86 147h87l58 -147h-59z" />
    <glyph glyph-name="Yacute.small" horiz-adv-x="408" 
d="M164 0v197l-155 289h78l77 -150l38 -76h2q18 38 37 74l81 152h77l-162 -289v-197h-73zM161 540l58 147h86l-86 -147h-58z" />
    <glyph glyph-name="Ycircumflex.small" horiz-adv-x="408" 
d="M164 0v197l-155 289h78l77 -150l38 -76h2q18 38 37 74l81 152h77l-162 -289v-197h-73zM71 540l98 147h69l99 -147h-64l-69 100l-70 -100h-63z" />
    <glyph glyph-name="Ydieresis.small" horiz-adv-x="408" 
d="M164 0v197l-155 289h78l77 -150l38 -76h2q18 38 37 74l81 152h77l-162 -289v-197h-73zM115 570q-18 0 -30.5 12.5t-12.5 30.5q0 19 12.5 31.5t30.5 12.5t31 -12.5t13 -31.5q0 -18 -13 -30.5t-31 -12.5zM293 570q-18 0 -31 12.5t-13 30.5q0 19 13 31.5t31 12.5t30.5 -12.5
t12.5 -31.5q0 -18 -12.5 -30.5t-30.5 -12.5z" />
    <glyph glyph-name="Zacute.small" horiz-adv-x="432" 
d="M36 0l250 426h-220l-20 60h354l-250 -426h249v-60h-363zM182 540l58 147h86l-86 -147h-58z" />
    <glyph glyph-name="Zcaron.small" horiz-adv-x="432" 
d="M36 0l250 426h-220l-20 60h354l-250 -426h249v-60h-363zM188 541l-98 147h64l70 -100l69 100h63l-99 -147h-69z" />
    <glyph glyph-name="Zdotaccent.small" horiz-adv-x="432" 
d="M36 0l250 426h-220l-20 60h354l-250 -426h249v-60h-363zM222 589q-21 0 -34.5 14t-13.5 35t13.5 35.5t34.5 14.5q22 0 36 -14t14 -36q0 -21 -14 -35t-36 -14z" />
    <glyph glyph-name="Eng.small" horiz-adv-x="582" 
d="M78 0v486h66l212 -271q36 -45 75 -100h2q-2 66 -2 95v276h73v-533q0 -76 -38 -112t-100 -36q-42 0 -71 13l17 59q26 -10 46 -10q37 0 55 23.5t18 76.5v44l-209 267q-46 59 -72 98h-2q2 -62 2 -93v-283h-72z" />
    <glyph glyph-name="Eth.small" horiz-adv-x="515" 
d="M78 0v218h-64v57h64v211h132q129 0 196.5 -64t67.5 -176q0 -113 -70 -179.5t-195 -66.5h-131zM150 61h65q95 0 140 50.5t45 134.5q0 85 -47 132t-142 47h-61v-150h123v-57h-123v-157z" />
    <glyph glyph-name="Thorn.small" horiz-adv-x="408" 
d="M78 0v486h72v-80h52q79 0 124.5 -41.5t45.5 -113.5q0 -73 -47 -116t-132 -43h-43v-92h-72zM150 152h48q51 0 76 26t25 72q0 45 -25 70.5t-75 25.5h-49v-194z" />
    <glyph glyph-name="a.superior" horiz-adv-x="352" 
d="M250 270l-9 34q-45 -41 -100 -41q-48 0 -78.5 28.5t-30.5 76.5q0 105 149 108l54 2v15q0 32 -19 48.5t-51 16.5q-46 0 -91 -26l-24 44q53 35 121 35q57 0 91 -29t34 -91v-106q0 -82 10 -115h-56zM235 356v73l-56 -2q-83 -3 -83 -56q0 -24 15 -39.5t40 -15.5q41 0 84 40z
" />
    <glyph glyph-name="b.superior" horiz-adv-x="365" 
d="M52 286v477h61v-166q31 14 69 14q67 0 110.5 -43.5t43.5 -121.5q0 -85 -51.5 -134t-133.5 -49q-57 0 -99 23zM113 325q16 -8 44 -8q52 0 84.5 34t32.5 92q0 51 -25.5 82.5t-73.5 31.5q-29 0 -62 -15v-217z" />
    <glyph glyph-name="c.superior" horiz-adv-x="320" 
d="M281 341l20 -47q-47 -31 -108 -31q-77 0 -120.5 48.5t-43.5 120.5q0 76 46 127.5t121 51.5q49 0 91 -22l-1 -56q-40 24 -84 24q-49 0 -79.5 -33.5t-30.5 -86.5q0 -56 29 -88t78 -32q38 0 82 24z" />
    <glyph glyph-name="d.superior" horiz-adv-x="369" 
d="M317 763v-475q-46 -25 -112 -25q-76 0 -126 45t-50 125q0 79 50 128.5t123 49.5q26 0 54 -7v159h61zM256 325v224q-20 8 -48 8q-50 0 -83 -33.5t-33 -89.5q0 -53 31 -85t86 -32q28 0 47 8z" />
    <glyph glyph-name="e.superior" horiz-adv-x="340" 
d="M282 341l19 -48q-51 -30 -111 -30q-77 0 -119 51t-42 127q0 75 39.5 122.5t102.5 47.5q64 0 100.5 -46t36.5 -125v-18h-217q2 -46 30 -75.5t74 -29.5q42 0 87 24zM91 473h154q-2 36 -21.5 61t-52.5 25q-34 0 -56 -24.5t-24 -61.5z" />
    <glyph glyph-name="f.superior" horiz-adv-x="222" 
d="M66 270v281h-44v51h44v50q0 57 28 84t70 27q31 0 58 -14l-13 -50q-22 9 -40 9q-42 0 -42 -52v-54h87l-20 -51h-67v-281h-61z" />
    <glyph glyph-name="g.superior" horiz-adv-x="343" 
d="M170 159q43 0 71.5 14t28.5 37q0 21 -25.5 31.5t-70.5 16.5t-60 11q-41 -22 -41 -54q0 -26 27 -41t70 -15zM169 419q31 0 51 18.5t20 50.5q0 30 -20 50t-51 20q-32 0 -51.5 -20t-19.5 -50q0 -31 19.5 -50t51.5 -19zM72 291q-19 16 -19 40q0 33 32 61q-48 34 -48 95
q0 54 36 88.5t93 34.5q39 0 65 -14q24 29 74 29q16 0 25 -3l-15 -51q-7 3 -20 3q-17 0 -26 -4q33 -32 33 -82q0 -55 -36.5 -88.5t-94.5 -33.5q-21 0 -47 7q-14 -17 -14 -30q0 -15 22.5 -23.5t55 -13t65 -12t55 -27.5t22.5 -52q0 -48 -45 -77t-119 -29q-72 0 -112 28t-40 71
q0 53 58 83z" />
    <glyph glyph-name="h.superior" horiz-adv-x="377" 
d="M52 270v493h61v-197q55 45 111 45q44 0 73.5 -30t29.5 -89v-222h-60v206q0 79 -56 79q-40 0 -98 -45v-240h-61z" />
    <glyph glyph-name="i.superior" horiz-adv-x="172" 
d="M55 270v332h61v-332h-61zM86 663q-16 0 -27.5 11.5t-11.5 27.5t11.5 27.5t27.5 11.5t27.5 -11.5t11.5 -27.5t-11.5 -27.5t-27.5 -11.5z" />
    <glyph glyph-name="j.superior" horiz-adv-x="185" 
d="M-33 121l15 51q21 -8 36 -8q25 0 35.5 14t10.5 47v377h61v-384q0 -56 -28.5 -82.5t-72.5 -26.5q-32 0 -57 12zM95 663q-17 0 -28 11.5t-11 27.5t11.5 27.5t27.5 11.5q17 0 28 -11.5t11 -27.5t-11 -27.5t-28 -11.5z" />
    <glyph glyph-name="k.superior" horiz-adv-x="332" 
d="M52 270v493h61v-280l118 119h76l-139 -144l150 -188h-73l-132 166v-166h-61z" />
    <glyph glyph-name="l.superior" horiz-adv-x="198" 
d="M158 327l13 -49q-24 -12 -52 -12q-32 0 -49.5 18.5t-17.5 49.5v429h61v-413q0 -29 21 -29q14 0 24 6z" />
    <glyph glyph-name="m.superior" horiz-adv-x="586" 
d="M52 270v332h51l6 -38q59 47 114 47q62 0 87 -54q60 54 123 54q44 0 73.5 -30t29.5 -89v-222h-61v206q0 79 -54 79q-44 0 -98 -45q1 -6 1 -21v-219h-61v206q0 38 -11.5 58.5t-42.5 20.5q-40 0 -96 -45v-240h-61z" />
    <glyph glyph-name="o.superior" horiz-adv-x="375" 
d="M187 263q-70 0 -114 50t-44 124t44 124t115 50q70 0 114 -50t44 -124t-44 -124t-115 -50zM187 317q43 0 69.5 33.5t26.5 86.5t-26.5 86.5t-68.5 33.5q-44 0 -70 -33.5t-26 -86.5t26 -86.5t69 -33.5z" />
    <glyph glyph-name="p.superior" horiz-adv-x="368" 
d="M52 109v481q55 21 114 21q82 0 127.5 -45t45.5 -127q0 -80 -47.5 -128t-122.5 -48q-33 0 -56 10v-164h-61zM113 329q22 -12 53 -12q52 0 81.5 33t29.5 89q0 59 -31 88.5t-81 29.5q-28 0 -52 -8v-220z" />
    <glyph glyph-name="q.superior" horiz-adv-x="370" 
d="M257 109v175q-35 -21 -82 -21q-61 0 -103.5 44t-42.5 122q0 85 51.5 133.5t131.5 48.5q53 0 106 -20v-482h-61zM257 342v207q-19 8 -48 8q-54 0 -86 -35t-32 -91q0 -51 26 -82.5t66 -31.5q43 0 74 25z" />
    <glyph glyph-name="r.superior" horiz-adv-x="244" 
d="M52 270v332h51l6 -35q43 44 86 44q24 0 45 -12l-22 -54q-16 7 -29 7q-33 0 -76 -43v-239h-61z" />
    <glyph glyph-name="s.superior" horiz-adv-x="293" 
d="M27 293l21 49q41 -26 86 -26q66 0 66 46q0 17 -16 29t-39 21t-45.5 20.5t-38.5 32.5t-16 51q0 42 30 68.5t84 26.5q49 0 90 -17v-56q-43 20 -87 20q-57 0 -57 -39q0 -20 24.5 -35t53.5 -24.5t53.5 -34.5t24.5 -63q0 -48 -35.5 -73.5t-89.5 -25.5q-60 0 -109 30z" />
    <glyph glyph-name="t.superior" horiz-adv-x="259" 
d="M217 339l22 -46q-44 -30 -89 -30q-39 0 -60 21t-21 59v208h-55v51h55v73l61 19v-92h102l-20 -51h-82v-199q0 -34 31 -34q27 0 56 21z" />
    <glyph glyph-name="u.superior" horiz-adv-x="373" 
d="M326 270h-56l-9 34q-53 -41 -104 -41q-47 0 -77 29.5t-30 87.5v222h61v-207q0 -76 56 -76q54 0 89 41v242h61v-217q0 -82 9 -115z" />
    <glyph glyph-name="v.superior" horiz-adv-x="321" 
d="M133 268l-129 334h64l91 -252h2l91 252h65l-130 -334h-54z" />
    <glyph glyph-name="w.superior" horiz-adv-x="494" 
d="M117 268l-113 334h65l75 -247h2l70 247h62l70 -247h2l75 247h65l-113 -334h-56l-73 249h-2l-73 -249h-56z" />
    <glyph glyph-name="x.superior" horiz-adv-x="319" 
d="M8 270l117 165l-116 167h66l84 -123l85 123h66l-116 -167l117 -165h-68l-84 121l-83 -121h-68z" />
    <glyph glyph-name="y.superior" horiz-adv-x="334" 
d="M-15 123l17 53q22 -11 48 -11q34 0 58.5 25t42.5 84l-144 328h66l105 -249h2l86 249h64l-127 -354q-30 -83 -66.5 -111t-85.5 -28q-36 0 -66 14z" />
    <glyph glyph-name="z.superior" horiz-adv-x="291" 
d="M14 270l164 281h-141l-14 51h250l-163 -281h162v-51h-258z" />
    <glyph glyph-name="grave.cap" horiz-adv-x="360" 
d="M165 696l-86 147h87l58 -147h-59z" />
    <glyph glyph-name="acute.cap" horiz-adv-x="360" 
d="M137 696l58 147h86l-86 -147h-58z" />
    <glyph glyph-name="circumflex.cap" horiz-adv-x="360" 
d="M47 696l98 147h69l99 -147h-64l-69 100l-70 -100h-63z" />
    <glyph glyph-name="caron.cap" horiz-adv-x="360" 
d="M145 696l-98 147h64l70 -100l69 100h63l-99 -147h-69z" />
    <glyph glyph-name="tilde.cap" horiz-adv-x="360" 
d="M41 726v23q0 35 20 55.5t51 20.5q30 0 72 -24t56 -24q26 0 26 42h53v-22q0 -35 -20 -56t-51 -21q-29 0 -71 24t-57 24q-26 0 -26 -42h-53z" />
    <glyph glyph-name="dieresis.cap" horiz-adv-x="360" 
d="M91 706q-18 0 -30.5 12.5t-12.5 31.5q0 18 12.5 30.5t30.5 12.5t31 -12.5t13 -30.5q0 -19 -13 -31.5t-31 -12.5zM269 706q-18 0 -31 12.5t-13 31.5q0 18 13 30.5t31 12.5t30.5 -12.5t12.5 -30.5q0 -19 -12.5 -31.5t-30.5 -12.5z" />
    <glyph glyph-name="macron.cap" horiz-adv-x="360" 
d="M56 717v59h248v-59h-248z" />
    <glyph glyph-name="breve.cap" horiz-adv-x="360" 
d="M252 825h53q-4 -56 -37.5 -89t-88.5 -33t-87.5 33t-36.5 89h53q12 -69 72 -69q62 0 72 69z" />
    <glyph glyph-name="ring.cap" horiz-adv-x="360" 
d="M180 653q-46 0 -74.5 26t-28.5 69t28.5 69t74.5 26t74.5 -26t28.5 -69t-28.5 -69t-74.5 -26zM180 694q22 0 35.5 14.5t13.5 39.5t-13.5 39.5t-35.5 14.5t-35.5 -14.5t-13.5 -39.5t13.5 -39.5t35.5 -14.5z" />
    <glyph glyph-name="hungarumlaut.cap" horiz-adv-x="360" 
d="M82 696l58 147h86l-86 -147h-58zM242 696l58 147h86l-85 -147h-59z" />
    <glyph glyph-name="dotaccent.cap" horiz-adv-x="360" 
d="M179 706q-21 0 -34.5 14t-13.5 35t13.5 35.5t34.5 14.5q22 0 36 -14t14 -36q0 -21 -14 -35t-36 -14z" />
    <glyph glyph-name="hyphen.cap" horiz-adv-x="356" 
d="M54 302v65h249v-65h-249z" />
    <glyph glyph-name="exclamdown.cap" horiz-adv-x="267" 
d="M133 565q-19 0 -33 15t-14 35t14 34.5t33 14.5q20 0 34 -14.5t14 -34.5t-14 -35t-34 -15zM97 -1v52q0 202 2.5 273t14.5 158h38q12 -86 14.5 -158t2.5 -274v-51h-72z" />
    <glyph glyph-name="exclam.small" horiz-adv-x="239" 
d="M100 145q-8 52 -11.5 103.5t-4 83t-0.5 123.5v31h71v-31q0 -120 -2.5 -177.5t-14.5 -132.5h-38zM119 -8q-19 0 -32 14t-13 33q0 20 13 33.5t32 13.5t32 -13.5t13 -33.5q0 -19 -13 -33t-32 -14z" />
    <glyph glyph-name="exclamdown.small" horiz-adv-x="239" 
d="M119 400q-19 0 -32 13.5t-13 33.5t13 33.5t32 13.5t32 -13.5t13 -33.5t-13 -33.5t-32 -13.5zM83 0v31q0 120 2.5 177t14.5 133h38q12 -76 14.5 -133t2.5 -177v-31h-72z" />
    <glyph glyph-name="questiondown.cap" horiz-adv-x="453" 
d="M265 563q-20 0 -34 14.5t-14 35.5q0 20 14 34.5t34 14.5q19 0 33 -14.5t14 -34.5q0 -21 -13.5 -35.5t-33.5 -14.5zM361 112l35 -50q-77 -72 -177 -72q-73 0 -115.5 38.5t-42.5 99.5q0 40 21 73.5t50.5 56l59 43t50.5 43t21 46.5q0 29 -23 55l59 33q37 -38 37 -87
q0 -34 -20.5 -63t-49 -50l-57.5 -41.5t-49.5 -46.5t-20.5 -56q0 -39 24.5 -60t63.5 -21q70 0 134 59z" />
    <glyph glyph-name="question.small" horiz-adv-x="354" 
d="M126 143q-30 27 -30 60q0 31 23 55t51 38t51 35t23 46t-18 41.5t-47 16.5q-51 0 -103 -43l-34 45q60 57 143 57q58 0 94.5 -30.5t36.5 -80.5q0 -37 -24 -66t-52 -44t-52 -33t-24 -35q0 -14 16 -30zM154 -8q-19 0 -32 14t-13 33q0 20 13 33.5t32 13.5t31.5 -13.5
t12.5 -33.5q0 -19 -13 -33t-31 -14z" />
    <glyph glyph-name="questiondown.small" horiz-adv-x="354" 
d="M199 400q-19 0 -32 13.5t-13 33.5t13 33.5t32 13.5t32 -13.5t13 -33.5t-13 -33.5t-32 -13.5zM276 92l35 -45q-60 -57 -143 -57q-58 0 -94.5 30.5t-36.5 80.5q0 37 23.5 66t52.5 44t52.5 33t23.5 35q0 14 -16 30l54 32q30 -27 30 -60q0 -31 -23 -55t-51 -38t-51 -35
t-23 -46t18 -41.5t47 -16.5q52 0 102 43z" />
    <glyph glyph-name="quoteleft.small" horiz-adv-x="226" 
d="M102 279q-36 67 -36 130q0 61 37 134l42 -10q-13 -45 -13 -85q0 -60 36 -134z" />
    <glyph glyph-name="quoteright.small" horiz-adv-x="226" 
d="M48 310q46 75 46 150q0 35 -7 67l74 14q6 -33 6 -64q0 -105 -82 -188z" />
    <glyph glyph-name="quotedblleft.small" horiz-adv-x="384" 
d="M102 279q-36 67 -36 130q0 61 37 134l42 -10q-13 -45 -13 -85q0 -60 36 -134zM260 279q-35 68 -35 130q0 63 36 134l42 -10q-12 -41 -12 -85q0 -64 36 -134z" />
    <glyph glyph-name="quotedblright.small" horiz-adv-x="384" 
d="M48 310q46 75 46 150q0 35 -7 67l74 14q6 -33 6 -64q0 -105 -82 -188zM206 310q46 75 46 150q0 35 -7 67l74 14q6 -33 6 -64q0 -105 -82 -188z" />
    <glyph glyph-name="guilsinglleft.cap" horiz-adv-x="342" 
d="M213 100l-166 228l166 229l59 -35l-141 -194l141 -193z" />
    <glyph glyph-name="guilsinglright.cap" horiz-adv-x="342" 
d="M68 135l140 193l-140 194l58 35l166 -229l-166 -228z" />
    <glyph glyph-name="guillemotleft.cap" horiz-adv-x="551" 
d="M213 100l-166 228l166 229l59 -35l-141 -194l141 -193zM423 100l-166 228l166 229l58 -35l-140 -194l140 -193z" />
    <glyph glyph-name="guillemotright.cap" horiz-adv-x="551" 
d="M69 135l140 193l-140 194l58 35l166 -229l-166 -228zM278 135l140 193l-140 194l59 35l165 -229l-165 -228z" />
    <glyph glyph-name="endash.cap" horiz-adv-x="450" 
d="M0 311v59h450v-59h-450z" />
    <glyph glyph-name="emdash.cap" horiz-adv-x="800" 
d="M0 311v59h800v-59h-800z" />
    <glyph glyph-name="periodcentered.cap" horiz-adv-x="216" 
d="M107 268q-19 0 -33 15t-14 35t14 34.5t33 14.5q20 0 34 -14.5t14 -34.5t-14 -35t-34 -15z" />
    <glyph glyph-name="parenleft.cap" horiz-adv-x="313" 
d="M237 -182q-159 188 -159 504q0 315 159 505l50 -36q-72 -101 -102.5 -204t-30.5 -265t30.5 -264.5t102.5 -203.5z" />
    <glyph glyph-name="parenright.cap" horiz-adv-x="313" 
d="M26 -146q72 101 103 204t31 264t-31 264t-103 205l50 36q159 -190 159 -505t-158 -504z" />
    <glyph glyph-name="parenleft.small" horiz-adv-x="280" 
d="M207 -152q-73 87 -102 182.5t-29 211.5t29 211.5t102 182.5l46 -38q-58 -78 -82.5 -154.5t-24.5 -201.5t24.5 -201.5t82.5 -154.5z" />
    <glyph glyph-name="parenright.small" horiz-adv-x="280" 
d="M26 -114q59 78 83.5 154t24.5 202t-24.5 202t-83.5 154l47 38q73 -87 102 -182.5t29 -211.5t-29 -211.5t-102 -182.5z" />
    <glyph glyph-name="bracketleft.cap" horiz-adv-x="277" 
d="M86 -179v1004h164v-58h-96v-888h96v-58h-164z" />
    <glyph glyph-name="bracketright.cap" horiz-adv-x="277" 
d="M28 -179v58h96v888h-96v58h164v-1004h-164z" />
    <glyph glyph-name="bracketleft.small" horiz-adv-x="257" 
d="M82 -147v778h150v-55h-85v-668h85v-55h-150z" />
    <glyph glyph-name="bracketright.small" horiz-adv-x="257" 
d="M175 -147h-151v55h86v668h-86v55h151v-778z" />
    <glyph glyph-name="braceleft.cap" horiz-adv-x="313" 
d="M268 -168q-85 12 -119 55t-34 119v216q0 71 -68 75v60q68 4 68 75v216q0 76 34 119t119 55l14 -67q-51 -8 -73 -35.5t-22 -77.5v-196q0 -105 -67 -118v-2q67 -13 67 -118v-196q0 -50 22 -77.5t73 -35.5z" />
    <glyph glyph-name="braceright.cap" horiz-adv-x="313" 
d="M32 -101q51 8 73 35.5t22 77.5v196q0 105 67 118v2q-67 13 -67 118v196q0 50 -22 77.5t-73 35.5l14 67q85 -12 119 -55t34 -119v-216q0 -71 68 -75v-60q-68 -4 -68 -75v-216q0 -76 -34 -119t-119 -55z" />
    <glyph glyph-name="braceleft.small" horiz-adv-x="257" 
d="M223 -159q-73 11 -101.5 47t-28.5 99v167q0 54 -56 58v54q56 4 56 58v166q0 63 28.5 99t101.5 47l13 -61q-77 -12 -77 -91v-148q0 -81 -51 -96v-2q51 -15 51 -96v-149q0 -79 77 -91z" />
    <glyph glyph-name="braceright.small" horiz-adv-x="257" 
d="M21 -98q77 12 77 91v149q0 81 51 96v2q-51 15 -51 96v148q0 79 -77 91l13 61q73 -11 101.5 -47t28.5 -99v-166q0 -54 56 -58v-54q-56 -4 -56 -58v-167q0 -63 -28.5 -99t-101.5 -47z" />
    <glyph glyph-name="at.cap" horiz-adv-x="768" 
d="M476 47l16 -50q-66 -26 -149 -26q-134 0 -219.5 90.5t-85.5 239.5q0 171 104 275.5t254 104.5q146 0 240 -87t94 -227q0 -109 -47 -167.5t-120 -58.5q-39 0 -65 22t-32 62h-2q-15 -33 -51.5 -58t-83.5 -25q-52 0 -88 37.5t-36 117.5q0 99 57.5 161.5t143.5 62.5
q71 0 136 -40l-22 -163q-4 -38 -4 -52q0 -71 53 -71q45 0 73 46t28 123q0 110 -72.5 187.5t-203.5 77.5q-125 0 -210 -88.5t-85 -235.5q0 -132 71 -207t181 -75q74 0 125 24zM464 364l11 83q-29 20 -69 20q-57 0 -95.5 -47t-38.5 -121q0 -49 18.5 -75.5t51.5 -26.5
q42 0 76.5 38t45.5 129z" />
    <glyph glyph-name="at.small" horiz-adv-x="641" 
d="M401 11l16 -47q-59 -24 -129 -24q-115 0 -189 77.5t-74 204.5q0 146 88 235t216 89q125 0 205.5 -74t80.5 -194q0 -94 -41.5 -145.5t-103.5 -51.5q-33 0 -55.5 18.5t-29.5 52.5h-2q-40 -70 -111 -70q-47 0 -75.5 33.5t-28.5 99.5q0 87 49.5 143t121.5 56q63 0 121 -35
l-25 -143q-4 -26 -4 -44q0 -58 43 -58q36 0 59.5 39.5t23.5 101.5q0 92 -59 156t-167 64q-106 0 -177 -74t-71 -197q0 -109 59.5 -171t150.5 -62q64 0 108 20zM383 277l12 71q-27 15 -56 15q-47 0 -78 -41t-31 -105q0 -37 15 -60t39 -23q75 0 99 143z" />
    <glyph glyph-name="copyright.small" horiz-adv-x="656" 
d="M328 -43q-122 0 -202.5 82.5t-80.5 204.5t80.5 204.5t202.5 82.5t202.5 -82.5t80.5 -204.5t-80.5 -204.5t-202.5 -82.5zM328 0q100 0 166.5 70t66.5 174t-66.5 174t-166.5 70t-167 -70t-67 -174t67 -174t167 -70zM412 157l16 -40q-44 -29 -98 -29q-66 0 -103.5 43
t-37.5 109t40.5 112t107.5 46q44 0 79 -19v-49q-38 22 -78 22q-44 0 -71 -30.5t-27 -77.5q0 -51 25.5 -80.5t69.5 -29.5q37 0 77 23z" />
    <glyph glyph-name="published.small" horiz-adv-x="656" 
d="M328 -43q-122 0 -202.5 82.5t-80.5 204.5t80.5 204.5t202.5 82.5t202.5 -82.5t80.5 -204.5t-80.5 -204.5t-202.5 -82.5zM328 0q100 0 166.5 70t66.5 174t-66.5 174t-166.5 70t-167 -70t-67 -174t67 -174t167 -70zM244 91v303h91q52 0 82 -25.5t30 -70.5q0 -47 -31.5 -75
t-86.5 -28h-36v-104h-49zM293 239h36q68 0 68 58q0 53 -66 53h-38v-111z" />
    <glyph glyph-name="Euro.OT" horiz-adv-x="516" 
d="M438 82l25 -55q-62 -37 -135 -37q-80 0 -136 44.5t-76 127.5h-61v52h53q-2 24 -2 36q0 22 3 45h-54v52h63q23 83 81 127.5t133 44.5q69 0 119 -28v-65q-58 32 -115 32q-48 0 -85.5 -28.5t-55.5 -82.5h225l-20 -52h-217q-3 -21 -3 -42q0 -24 2 -39h216l-20 -52h-185
q17 -55 54 -83t85 -28q56 0 106 31z" />
    <glyph glyph-name="dollar.OT" horiz-adv-x="516" 
d="M223 -62v76q-72 4 -128 35l23 55q54 -30 122 -30q46 0 77 17.5t31 54.5q0 31 -24.5 52.5t-60 34.5t-70.5 28.5t-59.5 44.5t-24.5 72q0 48 33 81t93 41v72h58v-71q49 -2 103 -21v-65q-57 27 -120 27q-39 0 -66.5 -14t-27.5 -46q0 -24 17.5 -42t44.5 -28t57.5 -23.5
t57.5 -28t44.5 -42.5t17.5 -66q0 -58 -38 -92.5t-101 -43.5v-78h-59z" />
    <glyph glyph-name="sterling.OT" horiz-adv-x="516" 
d="M89 0v49q65 33 68 184h-60v56h60v65q0 75 47 120t124 45q52 0 104 -18l-13 -61q-42 17 -86 17q-43 0 -73 -25t-30 -84v-59h171l-21 -56h-150q-3 -117 -45 -174v-2q20 1 68 1h177v-58h-341z" />
    <glyph glyph-name="yen.OT" horiz-adv-x="516" 
d="M222 0v91h-121v54h121v62h-121v55h92l-131 248h76l120 -234h1l119 234h76l-131 -248h92v-55h-121v-62h121v-54h-121v-91h-72z" />
    <glyph glyph-name="zero.OT" horiz-adv-x="516" 
d="M258 -10q-94 0 -151 70.5t-57 182.5t57 181.5t151 69.5t151 -69.5t57 -181.5t-57 -182.5t-151 -70.5zM258 52q66 0 99 52t33 139q0 86 -33 137.5t-99 51.5t-99 -51.5t-33 -137.5q0 -87 33 -139t99 -52z" />
    <glyph glyph-name="one.OT" horiz-adv-x="516" 
d="M287 0v411l-167 -78l-24 56l203 97h61v-486h-73z" />
    <glyph glyph-name="two.OT" horiz-adv-x="516" 
d="M74 0q6 59 29 105t53 72t64 50t62 40.5t46.5 40.5t18.5 53q0 32 -25.5 51.5t-69.5 19.5q-73 0 -144 -44l-25 54q79 52 180 52q75 0 117.5 -36t42.5 -97q0 -40 -23 -72.5t-57 -56l-69.5 -46t-65 -55t-38.5 -71.5h263v-60h-359z" />
    <glyph glyph-name="three.OT" horiz-adv-x="516" 
d="M47 -178l16 60q44 -15 111 -15q83 0 137.5 36t54.5 111q0 113 -164 113h-85v59h20q55 0 96 10q117 29 117 129q0 52 -32.5 79.5t-78.5 27.5q-66 0 -150 -44l-26 53q88 53 182 53q82 0 131.5 -45.5t49.5 -115.5q0 -60 -32 -101.5t-77 -58.5v-2q61 -11 93 -53.5t32 -101.5
q0 -36 -12 -69.5t-40 -67t-84.5 -54t-134.5 -20.5q-79 0 -124 17z" />
    <glyph glyph-name="four.OT" horiz-adv-x="516" 
d="M32 0v48l303 438h56v-426h94v-60h-94v-172l-73 -23v195h-286zM109 59q13 0 42 0.5t42 0.5h125v159q0 85 5 150z" />
    <glyph glyph-name="five.OT" horiz-adv-x="516" 
d="M42 -177l17 61q48 -17 103 -17q87 0 139.5 43t52.5 116q0 70 -46 99q-44 29 -144 29h-60l30 332h324l-15 -60h-241l-19 -214h21q94 0 146 -30q80 -46 80 -151q0 -41 -13.5 -78t-42.5 -72t-83.5 -55.5t-128.5 -20.5q-70 0 -120 18z" />
    <glyph glyph-name="six.OT" horiz-adv-x="516" 
d="M262 -10q-91 0 -151.5 68.5t-60.5 203.5q0 157 94 270t252 146l13 -62q-104 -21 -177.5 -88t-94.5 -172l1 -1q71 57 153 57q79 0 133 -52t54 -149q0 -100 -60.5 -160.5t-155.5 -60.5zM268 52q60 0 97 42.5t37 113.5q0 64 -33.5 102.5t-91.5 38.5q-78 0 -149 -65
q0 -1 -0.5 -13.5t-0.5 -18.5q0 -97 40.5 -148.5t100.5 -51.5z" />
    <glyph glyph-name="seven.OT" horiz-adv-x="516" 
d="M125 -196q32 174 102 335.5t156 286.5h-303l-16 60h415v-31q-207 -287 -272 -624z" />
    <glyph glyph-name="eight.OT" horiz-adv-x="516" 
d="M256 -10q-101 0 -158.5 48t-57.5 130q0 64 36 108.5t93 63.5v2q-109 48 -109 150q0 76 55.5 124t146.5 48q92 0 144 -49t52 -118q0 -107 -108 -155v-2q132 -49 132 -166q0 -81 -61.5 -132.5t-164.5 -51.5zM259 52q61 0 103.5 31t42.5 87q0 31 -13 54.5t-40 39.5t-50.5 25
t-62.5 21q-51 -16 -86.5 -49.5t-35.5 -83.5q0 -61 40.5 -93t101.5 -32zM280 369q101 37 101 123q0 48 -32.5 79.5t-88.5 31.5q-53 0 -88 -28.5t-35 -75.5q0 -54 38 -83t105 -47z" />
    <glyph glyph-name="nine.OT" horiz-adv-x="516" 
d="M122 -137q84 31 158.5 97.5t95.5 162.5l-2 1q-67 -52 -146 -52t-134 52.5t-55 149.5q0 99 59.5 159.5t153.5 60.5q92 0 153 -68.5t61 -192.5q0 -152 -86 -263.5t-234 -164.5zM242 134q76 0 144 60q3 15 3 43q0 93 -40.5 144t-97.5 51q-62 0 -99 -42.5t-37 -111.5
q0 -66 34 -105t93 -39z" />
    <glyph glyph-name="Euro.LT" 
d="M472 91l29 -58q-66 -43 -155 -43q-106 0 -168.5 60.5t-82.5 164.5h-71v55h63q-1 17 -1 52q0 30 3 62h-65v55h75q25 102 90 163.5t160 61.5q75 0 133 -33v-73q-65 38 -126 38q-68 0 -113.5 -42t-64.5 -115h270l-20 -55h-261q-3 -20 -3 -59q0 -36 2 -55h254l-20 -55h-223
q18 -73 61 -116.5t112 -43.5q60 0 122 36z" />
    <glyph glyph-name="dollar.LT" 
d="M220 -80v98q-80 5 -145 46l30 56q61 -41 133 -41q48 0 84.5 22.5t36.5 70.5q0 40 -28 71t-67.5 53l-79 46t-67.5 62.5t-28 88.5q0 57 39 101t107 52v94h60v-93q64 -5 113 -28v-65q-64 33 -134 33q-49 0 -79.5 -23t-30.5 -67q0 -37 28 -66.5t68 -51.5t79.5 -46t67.5 -63.5
t28 -91.5q0 -63 -41 -105t-114 -54v-99h-60z" />
    <glyph glyph-name="sterling.LT" 
d="M69 0v53q37 18 58.5 68.5t27 94t5.5 90.5h-79v62h79v87q0 51 13.5 89.5t33.5 60.5t47 36t50 18.5t47 4.5q56 0 109 -19l-15 -60q-43 16 -86 16q-54 0 -90 -35.5t-36 -117.5v-80h191l-22 -62h-169q0 -176 -69 -246v-2q62 4 98 4h196v-62h-389z" />
    <glyph glyph-name="yen.LT" 
d="M225 0v123h-156v55h156v84h-156v55h131l-164 342h79l146 -323h1l145 323h79l-164 -342h131v-55h-155v-84h155v-55h-155v-123h-73z" />
    <glyph glyph-name="zero.LT" 
d="M259 -10q-100 0 -160 89t-60 249q0 161 60.5 248.5t161.5 87.5t162 -89t61 -250q0 -159 -61.5 -247t-163.5 -88zM263 54q73 0 108 73.5t35 193.5q0 133 -38.5 206.5t-108.5 73.5q-72 0 -107.5 -74t-35.5 -193q0 -133 39 -206.5t108 -73.5z" />
    <glyph glyph-name="one.LT" 
d="M287 0v584l-184 -89l-26 59l223 110h60v-664h-73z" />
    <glyph glyph-name="two.LT" 
d="M54 0q6 71 27 128.5t50 94.5t62.5 67.5t66 53t59 44.5t43 49.5t16.5 60.5q0 52 -33 77t-85 25q-80 0 -160 -44l-23 58q84 50 189 50q93 0 141.5 -45t48.5 -117q0 -41 -15 -74.5t-40 -58t-55.5 -47l-62.5 -47.5t-60 -53t-49.5 -69t-28.5 -91h310v-62h-401z" />
    <glyph glyph-name="three.LT" 
d="M49 22l21 61q66 -29 141 -29t123.5 33t48.5 99q0 88 -94 109q-31 7 -85 7h-72v63h61q92 0 132.5 34t40.5 90q0 51 -30.5 81t-90.5 30q-75 0 -157 -44l-23 58q90 50 185 50q93 0 142.5 -48.5t49.5 -121.5q0 -110 -106 -152v-2q59 -11 92 -51t33 -102q0 -86 -64 -141.5
t-187 -55.5q-90 0 -161 32z" />
    <glyph glyph-name="four.LT" 
d="M47 175v55l305 434h53v-427h90v-62h-90v-175h-73v175h-285zM125 236q11 0 39 0.5t41 0.5h127v158q0 61 5 149z" />
    <glyph glyph-name="five.LT" 
d="M62 18l20 60q55 -24 121 -24q76 0 123.5 37t47.5 106q0 89 -82 119q-35 14 -114 14h-72v329h345l-16 -62h-257v-205h26q74 0 118 -15q129 -44 129 -178q0 -92 -63 -150.5t-187 -58.5q-83 0 -139 28z" />
    <glyph glyph-name="six.LT" 
d="M278 -10q-100 0 -165 79.5t-65 231.5q0 154 76.5 258.5t204.5 104.5q66 0 120 -25l-21 -60q-47 22 -97 22q-82 0 -138 -64.5t-67 -177.5q79 50 163 50q86 0 141.5 -53.5t55.5 -148.5q0 -100 -58 -158.5t-150 -58.5zM277 53q62 0 97 38t35 109q0 68 -36.5 107t-94.5 39
q-79 0 -152 -54q-1 -107 41 -173t110 -66z" />
    <glyph glyph-name="seven.LT" 
d="M139 0q62 329 257 597h-299l-17 62h413v-31q-214 -285 -276 -628h-78z" />
    <glyph glyph-name="eight.LT" 
d="M266 -10q-101 0 -158.5 48t-57.5 130q0 64 36.5 108t92.5 64v2q-109 48 -109 150q0 76 55.5 124t147.5 48q91 0 143.5 -49t52.5 -118q0 -107 -108 -155v-2q131 -48 131 -166q0 -81 -61.5 -132.5t-164.5 -51.5zM270 52q60 0 102.5 31t42.5 87q0 25 -10 45.5t-23.5 34
t-38 25.5t-44 19t-50.5 16q-51 -16 -86.5 -49.5t-35.5 -83.5q0 -61 41 -93t102 -32zM290 369q101 37 101 123q0 48 -32.5 79.5t-87.5 31.5q-54 0 -88.5 -28.5t-34.5 -75.5q0 -54 38 -83t104 -47z" />
    <glyph glyph-name="nine.LT" 
d="M203 -10q-73 0 -137 27l20 62q55 -26 118 -26q89 0 141 65.5t59 186.5h-2q-69 -60 -158 -60q-79 0 -137.5 50.5t-58.5 152.5q0 95 58 155.5t149 60.5q104 0 164.5 -79t60.5 -232q0 -170 -71.5 -266.5t-205.5 -96.5zM259 308q42 0 81.5 21t62.5 52q-1 101 -41.5 161
t-108.5 60q-58 0 -93 -42t-35 -106q0 -68 35 -107t99 -39z" />
    <glyph glyph-name="Euro.OP" horiz-adv-x="516" 
d="M438 82l25 -55q-62 -37 -135 -37q-80 0 -136 44.5t-76 127.5h-61v52h53q-2 24 -2 36q0 22 3 45h-54v52h63q23 83 81 127.5t133 44.5q69 0 119 -28v-65q-58 32 -115 32q-48 0 -85.5 -28.5t-55.5 -82.5h225l-20 -52h-217q-3 -21 -3 -42q0 -24 2 -39h216l-20 -52h-185
q17 -55 54 -83t85 -28q56 0 106 31z" />
    <glyph glyph-name="dollar.OP" horiz-adv-x="516" 
d="M223 -62v76q-72 4 -128 35l23 55q54 -30 122 -30q46 0 77 17.5t31 54.5q0 31 -24.5 52.5t-60 34.5t-70.5 28.5t-59.5 44.5t-24.5 72q0 48 33 81t93 41v72h58v-71q49 -2 103 -21v-65q-57 27 -120 27q-39 0 -66.5 -14t-27.5 -46q0 -24 17.5 -42t44.5 -28t57.5 -23.5
t57.5 -28t44.5 -42.5t17.5 -66q0 -58 -38 -92.5t-101 -43.5v-78h-59z" />
    <glyph glyph-name="sterling.OP" horiz-adv-x="516" 
d="M89 0v49q65 33 68 184h-60v56h60v65q0 75 47 120t124 45q52 0 104 -18l-13 -61q-42 17 -86 17q-43 0 -73 -25t-30 -84v-59h171l-21 -56h-150q-3 -117 -45 -174v-2q20 1 68 1h177v-58h-341z" />
    <glyph glyph-name="yen.OP" horiz-adv-x="516" 
d="M222 0v91h-121v54h121v62h-121v55h92l-131 248h76l120 -234h1l119 234h76l-131 -248h92v-55h-121v-62h121v-54h-121v-91h-72z" />
    <glyph glyph-name="zero.OP" horiz-adv-x="516" 
d="M258 -10q-94 0 -150.5 70.5t-56.5 182.5t56.5 181.5t150.5 69.5t150.5 -69.5t56.5 -181.5t-56.5 -182.5t-150.5 -70.5zM258 52q66 0 98.5 52t32.5 139t-32.5 138t-98.5 51t-98.5 -51t-32.5 -138t32.5 -139t98.5 -52z" />
    <glyph glyph-name="one.OP" horiz-adv-x="409" 
d="M212 0v411l-140 -69l-24 56l176 88h60v-486h-72z" />
    <glyph glyph-name="two.OP" horiz-adv-x="485" 
d="M55 0q6 59 29 105t53 72t64 50t62 40.5t46.5 40.5t18.5 53q0 32 -25.5 51.5t-69.5 19.5q-73 0 -144 -44l-25 54q79 52 180 52q75 0 117.5 -36t42.5 -97q0 -40 -23 -72.5t-57 -56l-69.5 -46t-65 -55t-38.5 -71.5h263v-60h-359z" />
    <glyph glyph-name="three.OP" horiz-adv-x="500" 
d="M32 -178l17 60q44 -15 110 -15q83 0 137.5 36t54.5 111q0 113 -163 113h-85v59h20q55 0 95 10q118 30 118 129q0 52 -33 79.5t-79 27.5q-67 0 -149 -44l-26 53q86 53 181 53q82 0 132 -45.5t50 -115.5q0 -61 -32 -102t-78 -58v-2q61 -11 93 -53.5t32 -101.5
q0 -28 -6.5 -54.5t-25.5 -56t-48 -51t-78 -35.5t-112 -14q-80 0 -125 17z" />
    <glyph glyph-name="four.OP" horiz-adv-x="516" 
d="M32 0v48l303 438h56v-426h94v-60h-94v-172l-73 -23v195h-286zM109 59q13 0 42 0.5t42 0.5h125v159q0 85 5 150z" />
    <glyph glyph-name="five.OP" horiz-adv-x="466" 
d="M22 -177l17 61q48 -17 103 -17q88 0 140.5 43t52.5 116q0 70 -46 99q-43 29 -144 29h-60l30 332h324l-16 -60h-241l-19 -214h21q94 0 146 -30q81 -46 81 -151q0 -41 -13.5 -78t-42.5 -72t-83.5 -55.5t-128.5 -20.5q-71 0 -121 18z" />
    <glyph glyph-name="six.OP" horiz-adv-x="534" 
d="M269 -10q-91 0 -151.5 68.5t-60.5 203.5q0 157 94 270t252 146l13 -62q-104 -21 -178 -88t-94 -172l1 -1q71 57 153 57q79 0 132.5 -52t53.5 -149q0 -100 -60 -160.5t-155 -60.5zM274 52q60 0 97 42.5t37 113.5q0 64 -33.5 102.5t-90.5 38.5q-78 0 -149 -65q-2 -8 -2 -32
q0 -97 41 -148.5t100 -51.5z" />
    <glyph glyph-name="seven.OP" horiz-adv-x="451" 
d="M82 -196q32 176 100.5 338t153.5 284h-300l-17 60h412v-31q-200 -277 -267 -624z" />
    <glyph glyph-name="eight.OP" horiz-adv-x="541" 
d="M265 -10q-101 0 -158.5 48t-57.5 130q0 64 36.5 108.5t93.5 63.5v2q-110 47 -110 150q0 76 55.5 124t147.5 48q91 0 143.5 -49t52.5 -118q0 -107 -108 -155v-2q132 -49 132 -166q0 -81 -62 -132.5t-165 -51.5zM269 52q60 0 102.5 31t42.5 87q0 25 -10 45.5t-23.5 34
t-38 25.5t-44 19t-50.5 16q-50 -16 -85.5 -49.5t-35.5 -83.5q0 -61 40.5 -93t101.5 -32zM289 369q101 37 101 123q0 48 -32.5 79.5t-87.5 31.5q-54 0 -88.5 -28.5t-34.5 -75.5q0 -54 38 -83t104 -47z" />
    <glyph glyph-name="nine.OP" horiz-adv-x="534" 
d="M133 -137q84 31 158.5 97.5t95.5 162.5l-2 1q-67 -52 -146 -52t-134 52.5t-55 149.5q0 99 59.5 159.5t153.5 60.5q91 0 152.5 -68.5t61.5 -192.5q0 -152 -86 -263.5t-234 -164.5zM253 134q76 0 144 60q3 15 3 43q0 93 -40.5 144t-97.5 51q-62 0 -99 -42.5t-37 -111.5
q0 -66 34 -105t93 -39z" />
    <glyph glyph-name="zero.dnom" horiz-adv-x="368" 
d="M183 -7q-63 0 -101.5 52.5t-38.5 146.5t39 145.5t103 51.5q63 0 102 -52.5t39 -147.5q0 -93 -39.5 -144.5t-103.5 -51.5zM186 46q38 0 56.5 40t18.5 102q0 70 -20.5 109t-57.5 39t-56 -40t-19 -101q0 -69 20.5 -109t57.5 -40z" />
    <glyph glyph-name="one.dnom" horiz-adv-x="324" 
d="M176 0v322l-119 -47l-23 48l154 65h50v-388h-62z" />
    <glyph glyph-name="two.dnom" horiz-adv-x="327" 
d="M30 0q2 53 23 94t48 64.5t54.5 43t46 40t18.5 43.5t-16.5 36.5t-44.5 13.5q-40 0 -95 -30l-21 48q63 36 123 36q57 0 88 -27.5t31 -73.5q0 -31 -16.5 -56t-41 -43l-49.5 -36t-46.5 -43t-27.5 -54h181v-56h-255z" />
    <glyph glyph-name="three.dnom" horiz-adv-x="330" 
d="M21 15l17 50q41 -19 85 -19q91 0 91 63q0 39 -41 52q-21 8 -64 8h-40v51h35q38 0 61 10q37 16 37 53q0 26 -18.5 39t-46.5 13q-41 0 -87 -21l-19 48q58 27 115 27q55 0 88 -27.5t33 -71.5q0 -65 -69 -90v-2q38 -7 59.5 -31.5t21.5 -62.5q0 -48 -39 -79.5t-115 -31.5
q-60 0 -104 22z" />
    <glyph glyph-name="four.dnom" horiz-adv-x="368" 
d="M34 88v41l192 259h55v-250h53v-50h-53v-88h-62v88h-185zM103 138h73h43v42q0 70 3 119z" />
    <glyph glyph-name="five.dnom" horiz-adv-x="332" 
d="M32 15l18 51q39 -20 82 -20q86 0 86 70q0 38 -33 55q-24 10 -73 10h-52v199h224l-14 -53h-149v-96h18q51 0 80 -13q64 -26 64 -101q0 -56 -39 -90t-111 -34q-60 0 -101 22z" />
    <glyph glyph-name="six.dnom" horiz-adv-x="347" 
d="M183 -7q-60 0 -100 46t-40 136q0 91 48.5 152.5t126.5 61.5q42 0 77 -16l-17 -50q-26 13 -58 13q-41 0 -71 -30.5t-38 -84.5h2q37 22 80 22q53 0 87 -33t34 -89q0 -58 -37.5 -93t-93.5 -35zM186 45q30 0 47.5 19t17.5 54q0 33 -19.5 52.5t-50.5 19.5q-34 0 -72 -26
q-1 -53 20 -86t57 -33z" />
    <glyph glyph-name="seven.dnom" horiz-adv-x="312" 
d="M59 0q42 184 150 327h-174l-14 53h270v-32q-122 -146 -163 -348h-69z" />
    <glyph glyph-name="eight.dnom" horiz-adv-x="368" 
d="M180 -7q-62 0 -99 28t-37 78q0 72 73 98v2q-61 28 -61 88q0 46 35 74t92 28t91.5 -28t34.5 -74q0 -61 -60 -87v-2q75 -24 75 -95q0 -51 -40.5 -80.5t-103.5 -29.5zM182 46q31 0 54 15t23 43q0 48 -86 70q-27 -7 -46 -24.5t-19 -44.5q0 -28 21.5 -43.5t52.5 -15.5z
M190 221q55 21 55 65q0 21 -17 35.5t-45 14.5t-45 -13t-17 -36q0 -47 69 -66z" />
    <glyph glyph-name="nine.dnom" horiz-adv-x="347" 
d="M133 -7q-48 0 -89 17l17 52q31 -16 70 -16q47 0 76 31t34 90h-2q-39 -28 -85 -28q-51 0 -85.5 30t-34.5 90q0 58 36 94t92 36q65 0 103.5 -47.5t38.5 -139.5q0 -96 -45 -152.5t-126 -56.5zM165 191q21 0 42 11t32 26q-1 51 -22 79.5t-55 28.5q-30 0 -47.5 -20t-17.5 -51
q0 -34 18 -54t50 -20z" />
    <glyph glyph-name="plus.dnom" horiz-adv-x="413" 
d="M179 30v135h-127v54h127v131h55v-131h127v-54h-127v-135h-55z" />
    <glyph glyph-name="minus.dnom" horiz-adv-x="413" 
d="M52 165v54h309v-54h-309z" />
    <glyph glyph-name="equal.dnom" horiz-adv-x="413" 
d="M52 229v53h309v-53h-309zM52 102v53h309v-53h-309z" />
    <glyph glyph-name="parenleft.dnom" horiz-adv-x="239" 
d="M160 -47q-103 93 -103 239t103 239l38 -31q-79 -85 -79 -208t79 -208z" />
    <glyph glyph-name="parenright.dnom" horiz-adv-x="239" 
d="M41 -16q79 83 79 208t-79 208l39 31q102 -93 102 -239t-102 -239z" />
    <glyph glyph-name="zero.numr" horiz-adv-x="368" 
d="M183 261q-63 0 -101.5 52.5t-38.5 146.5t39 145.5t103 51.5q63 0 102 -52.5t39 -147.5q0 -93 -39.5 -144.5t-103.5 -51.5zM186 314q38 0 56.5 40t18.5 102q0 70 -20.5 109t-57.5 39t-56 -40t-19 -101q0 -69 20.5 -109t57.5 -40z" />
    <glyph glyph-name="one.numr" horiz-adv-x="324" 
d="M176 268v322l-119 -47l-23 48l154 65h50v-388h-62z" />
    <glyph glyph-name="two.numr" horiz-adv-x="327" 
d="M30 268q2 53 23 94t48 64.5t54.5 43t46 40t18.5 43.5t-16.5 36.5t-44.5 13.5q-40 0 -95 -30l-21 48q63 36 123 36q57 0 88 -27.5t31 -73.5q0 -31 -16.5 -56t-41 -43l-49.5 -36t-46.5 -43t-27.5 -54h181v-56h-255z" />
    <glyph glyph-name="three.numr" horiz-adv-x="330" 
d="M21 283l17 50q41 -19 85 -19q91 0 91 63q0 39 -41 52q-21 8 -64 8h-40v51h35q38 0 61 10q37 16 37 53q0 26 -18.5 39t-46.5 13q-41 0 -87 -21l-19 48q58 27 115 27q55 0 88 -27.5t33 -71.5q0 -65 -69 -90v-2q38 -7 59.5 -31.5t21.5 -62.5q0 -48 -39 -79.5t-115 -31.5
q-60 0 -104 22z" />
    <glyph glyph-name="four.numr" horiz-adv-x="368" 
d="M34 356v41l192 259h55v-250h53v-50h-53v-88h-62v88h-185zM103 406h73h43v42q0 70 3 119z" />
    <glyph glyph-name="five.numr" horiz-adv-x="332" 
d="M32 283l18 51q39 -20 82 -20q86 0 86 70q0 38 -33 55q-24 10 -73 10h-52v199h224l-14 -53h-149v-96h18q51 0 80 -13q64 -26 64 -101q0 -56 -39 -90t-111 -34q-60 0 -101 22z" />
    <glyph glyph-name="six.numr" horiz-adv-x="347" 
d="M183 261q-60 0 -100 46t-40 136q0 91 48.5 152.5t126.5 61.5q42 0 77 -16l-17 -50q-26 13 -58 13q-41 0 -71 -30.5t-38 -84.5h2q37 22 80 22q53 0 87 -33t34 -89q0 -58 -37.5 -93t-93.5 -35zM186 313q30 0 47.5 19t17.5 54q0 33 -19.5 52.5t-50.5 19.5q-34 0 -72 -26
q-1 -53 20 -86t57 -33z" />
    <glyph glyph-name="seven.numr" horiz-adv-x="312" 
d="M59 268q42 184 150 327h-174l-14 53h270v-32q-122 -146 -163 -348h-69z" />
    <glyph glyph-name="eight.numr" horiz-adv-x="368" 
d="M180 261q-62 0 -99 28t-37 78q0 72 73 98v2q-61 28 -61 88q0 46 35 74t92 28t91.5 -28t34.5 -74q0 -61 -60 -87v-2q75 -24 75 -95q0 -51 -40.5 -80.5t-103.5 -29.5zM182 314q31 0 54 15t23 43q0 48 -86 70q-27 -7 -46 -24.5t-19 -44.5q0 -28 21.5 -43.5t52.5 -15.5z
M190 489q55 21 55 65q0 21 -17 35.5t-45 14.5t-45 -13t-17 -36q0 -47 69 -66z" />
    <glyph glyph-name="nine.numr" horiz-adv-x="347" 
d="M133 261q-48 0 -89 17l17 52q31 -16 70 -16q47 0 76 31t34 90h-2q-39 -28 -85 -28q-51 0 -85.5 30t-34.5 90q0 58 36 94t92 36q65 0 103.5 -47.5t38.5 -139.5q0 -96 -45 -152.5t-126 -56.5zM165 459q21 0 42 11t32 26q-1 51 -22 79.5t-55 28.5q-30 0 -47.5 -20t-17.5 -51
q0 -34 18 -54t50 -20z" />
    <glyph glyph-name="plus.numr" horiz-adv-x="413" 
d="M179 305v135h-127v54h127v131h55v-131h127v-54h-127v-135h-55z" />
    <glyph glyph-name="minus.numr" horiz-adv-x="413" 
d="M52 440v54h309v-54h-309z" />
    <glyph glyph-name="equal.numr" horiz-adv-x="413" 
d="M52 504v53h309v-53h-309zM52 377v53h309v-53h-309z" />
    <glyph glyph-name="parenleft.numr" horiz-adv-x="239" 
d="M160 228q-103 93 -103 239t103 239l38 -31q-79 -85 -79 -208t79 -208z" />
    <glyph glyph-name="parenright.numr" horiz-adv-x="239" 
d="M41 259q79 83 79 208t-79 208l39 31q102 -93 102 -239t-102 -239z" />
    <glyph glyph-name="ampersand.small" horiz-adv-x="528" 
d="M349 53q-81 -61 -163 -61q-70 0 -109.5 40t-39.5 98q0 95 104 143q-31 35 -44 59t-13 53q0 47 34.5 78t91.5 31q59 0 94.5 -30t35.5 -78q0 -76 -102 -129q63 -74 113 -122q43 49 69 114l59 -16q-30 -80 -83 -137q47 -42 83 -42q11 0 19 3l15 -54q-18 -7 -43 -7
q-54 0 -121 57zM194 51q58 0 109 42q-73 69 -127 138q-69 -32 -69 -94q0 -39 23.5 -62.5t63.5 -23.5zM201 299q69 35 69 84q0 25 -17 40t-42 15q-29 0 -43 -16t-14 -38q0 -33 47 -85z" />
    </font>
</defs>
</svg>
